Filmbol Forum Film İndir 1080P v Nasıl Süper Kahraman Oldum (Comment je suis devenu super-héros) - 2020 - TR+ORG - 1080P | tt10345590
Bildirimi Kapat
Merhaba , site giderlerini bir nebze olsun karşılamak adına link kısaltma servisleri kullanmaya başladık. İndirme linkleri sizi ouo.io adresinde yönlendirecek, 3 saniye geçtikten sonra Get Link butonuna tıklayarak linke ulaşacaksınız. Premium üyeler bu durumdan etkilenmeyecektir.


Premium Üyelik Al

Nasıl Süper Kahraman Oldum (Comment je suis devenu super-héros) - 2020 - TR+ORG - 1080P | tt10345590
TheSteeL
Nasıl Süper Kahraman Oldum (Comment je suis devenu super-héros) - 2020 - TR+ORG - 1080P | tt10345590
0
129
  • Derecelendirme: 0/5 - 0 oy
  • 1
  • 2
  • 3
  • 4
  • 5
Konuyu Okuyanlar:3 Ziyaretçi
Şuan Online!
Filmin Yayınlanma Tarihi: 2020 
Şuan Online!
TheSteeL Chief Executive Officer
******
CEO


 Nasıl Süper Kahraman Oldum



Süper kahraman tarzı filmlerin hızlı bir şekilde yükselişe geçmesi ve güzel bir ivme kazanması ile, bir çok ülke sineması yeni yapıtlar sunmak adına harekete geçti. Bu işte en iyilerin Marvel ve DC evrenleri olduğunu biliyoruz. Fakat yeni fikirlere kapalı olmak yanlış olurdu. Nasıl Süper Kahraman Oldum filmi Fransız yapımı ilk süper kahraman filmi. Başarılı olduğunu sorgulamak size kalmış fakat Deadpool veya Galaksinin Koruyucuları gibi komedi, fantastik tarzı filmleri seviyorsanız, bu film size göre olabilir. Konusu ise Fransa'nın göbeğinde, Paris'te canlanıyor. Paris büyük bir sıkıntı içerisine düşmüştür. Bunun ana sebebi, Fransa da varlığını hızlı bir şekilde artıran süper güçlere sahip süper kahramanlar oluyor. Süper kahramanların çoğalması iyi bir sonuç vermemiştir. Birbiri ile savaşan bu insanlar, şehri tamamen tehlikeye sürüklediği için polis nasıl süper kahraman olduklarını sorgulamaya başlar...

Nasıl Süper Kahraman Oldum (2020) | tt10345590 Filmi Imdb'den 3000 kişi tarafından oylandı ve 5,8 puan aldı. Bu film için editör puanı %65 olarak belirlendi. İyi Seyirler!

Teknik Detaylar

Kod :
General
Unique ID                                : 173610440339617599886432931607124374772 (0x829C2791F43DC0950EF410643C27F4F4)
Complete name                            : /home/TheSteel/Desktop/5/Nasil.Super.Kahraman.Oldum.2020.1080p.NF.WEB-DL.x264.TR.FR.Filmbol.mkv
Format                                   : Matroska
Format version                           : Version 4
File size                                : 1.89 GiB
Duration                                 : 1 h 41 min
Overall bit rate                         : 2 670 kb/s
Movie name                               : Comment je suis devenu super-héros - Nasıl Süper Kahraman Oldum - 2020 | Filmbol.org
Encoded date                             : UTC 2021-07-10 16:34:36
Writing application                      : mkvmerge v31.0.0 ('Dolores In A Shoestand') 64-bit
Writing library                          : libebml v1.3.6 + libmatroska v1.4.9

Video
ID                                       : 1
Format                                   : AVC
Format/Info                              : Advanced Video Codec
Format profile                           : [email protected]
Format settings                          : CABAC / 2 Ref Frames
Format settings, CABAC                   : Yes
Format settings, Reference frames        : 2 frames
Codec ID                                 : V_MPEG4/ISO/AVC
Duration                                 : 1 h 41 min
Bit rate                                 : 2 092 kb/s
Width                                    : 1 920 pixels
Height                                   : 1 080 pixels
Display aspect ratio                     : 16:9
Frame rate mode                          : Constant
Frame rate                               : 24.000 FPS
Color space                              : YUV
Chroma subsampling                       : 4:2:0
Bit depth                                : 8 bits
Scan type                                : Progressive
Bits/(Pixel*Frame)                       : 0.042
Stream size                              : 1.48 GiB (78%)
Title                                    : Comment je suis devenu super-héros - Nasıl Süper Kahraman Oldum - 2020 | Filmbol.org
Default                                  : Yes
Forced                                   : No

Audio #1
ID                                       : 2
Format                                   : AC-3
Format/Info                              : Audio Coding 3
Commercial name                          : Dolby Digital
Codec ID                                 : A_AC3
Duration                                 : 1 h 41 min
Bit rate mode                            : Constant
Bit rate                                 : 384 kb/s
Channel(s)                               : 6 channels
Channel layout                           : L R C LFE Ls Rs
Sampling rate                            : 48.0 kHz
Frame rate                               : 31.250 FPS (1536 SPF)
Compression mode                         : Lossy
Stream size                              : 278 MiB (14%)
Title                                    : Comment je suis devenu super-héros - Nasıl Süper Kahraman Oldum - 2020 | Filmbol.org
Language                                 : Turkish
Service kind                             : Complete Main
Default                                  : Yes
Forced                                   : No

Audio #2
ID                                       : 3
Format                                   : AC-3
Format/Info                              : Audio Coding 3
Commercial name                          : Dolby Digital
Codec ID                                 : A_AC3
Duration                                 : 1 h 41 min
Bit rate mode                            : Constant
Bit rate                                 : 192 kb/s
Channel(s)                               : 2 channels
Channel layout                           : L R
Sampling rate                            : 48.0 kHz
Frame rate                               : 31.250 FPS (1536 SPF)
Compression mode                         : Lossy
Stream size                              : 139 MiB (7%)
Title                                    : Comment je suis devenu super-héros - Nasıl Süper Kahraman Oldum - 2020 | Filmbol.org
Language                                 : French
Service kind                             : Complete Main
Default                                  : No
Forced                                   : No

Text #1
ID                                       : 4
Format                                   : UTF-8
Codec ID                                 : S_TEXT/UTF8
Codec ID/Info                            : UTF-8 Plain Text
Duration                                 : 1 h 39 min
Bit rate                                 : 0 b/s
Count of elements                        : 20
Stream size                              : 706 Bytes (0%)
Title                                    : Comment je suis devenu super-héros - Nasıl Süper Kahraman Oldum - 2020 | Filmbol.org
Language                                 : Turkish
Default                                  : Yes
Forced                                   : Yes

Text #2
ID                                       : 5
Format                                   : UTF-8
Codec ID                                 : S_TEXT/UTF8
Codec ID/Info                            : UTF-8 Plain Text
Duration                                 : 1 h 39 min
Bit rate                                 : 42 b/s
Count of elements                        : 1120
Stream size                              : 31.0 KiB (0%)
Title                                    : Comment je suis devenu super-héros - Nasıl Süper Kahraman Oldum - 2020 | Filmbol.org
Language                                 : Turkish
Default                                  : No
Forced                                   : No

Film Detayları


 Nasıl Süper Kahraman Oldum

 Nasıl Süper Kahraman Oldum

 Nasıl Süper Kahraman Oldum


Film Fragmanı


Film Detayları



Zip Şifresi: filmbol.org Aşağıdaki butona tıklayarak kopyalabilirsiniz.


Uptobox ile indir

1Fichier ile indir

1Fichier'den İndiremiyor musun? Tıklayın!





Filmbol Cloud

Bunun için üzgünüz ancak, bu linke sadece premium üyeler erişebilir.




WWW


Hızlı Menü: