Filmbol Forum Film İndir BRRip XviD v The Post - 2017 - TR - BRRip XviD | tt6294822
Bildirimi Kapat
Merhaba , site giderlerini bir nebze olsun karşılamak adına link kısaltma servisleri kullanmaya başladık. İndirme linkleri sizi ouo.io adresinde yönlendirecek, 3 saniye geçtikten sonra Get Link butonuna tıklayarak linke ulaşacaksınız. Premium üyeler bu durumdan etkilenmeyecektir.


Premium Üyelik Al

The Post - 2017 - TR - BRRip XviD | tt6294822
BroserBros
The Post - 2017 - TR - BRRip XviD | tt6294822
0
37
  • Derecelendirme: 0/5 - 0 oy
  • 1
  • 2
  • 3
  • 4
  • 5
Konuyu Okuyanlar:2 Ziyaretçi
Şuan Online!
Filmin Yayınlanma Tarihi: 2017 
Şuan Online!
BroserBros Kurucu Admin
*******
Admin


 The Post



Dram türündeki film 1971’de Pentagon belgeleri etrafında dönen yasal süreci konu alıyor. Washington Post çalışanları editör Ben Bradlee (Hanks) ve yayıncı Katharine Graham (Streep) ordu analisti Daniel Ellsberg tarafından yazılan ve sızdırılan Pentagon belgelerini yayınlama kararı alırlar. Belgelerin, Johnson yönetiminin Vietnam Savaşı’nda ABD askerlerinin rolü hakkında kamuoyuna ve kongreye yalan söylediğini, Nixon yönetiminin gizlice savaşı tırmandırdığını ortaya koymaları büyük skandal yaratır. Nixon yönetimi The Post’un bunları yayınlamasını durdurmaya çalışır ve ABD Savunma Bakanı Yardımcısı William Rehnquist davayı Yüksek Mahkemeye sunar. Belgelerin yayınlanabilmesi ve özgür basın kavramının korunabilmesi için gazete ile ordu arasında büyük bir hukuk mücadelesi verilecektir…

The Post (2017) | tt6294822 Filmi Imdb'den 150,000 kişi tarafından oylandı ve 7,2 puan aldı. Bu film için editör puanı %75 olarak belirlendi. İyi Seyirler!

Teknik Detaylar

Kod :
General
Complete name                            : /home/BroserBros/Desktop/8/The.Post.2017.BRRip.XviD.TR.Filmbol.avi
Format                                   : AVI
Format/Info                              : Audio Video Interleave
File size                                : 1.40 GiB
Duration                                 : 1 h 55 min
Overall bit rate                         : 1 733 kb/s
Movie name                               : RARBG - The.Post.2017.BRRip.XviD.MP3-XVID
Writing application                      : VirtualDubMod 1.5.10.2 (build 2542/release)
Writing library                          : VirtualDubMod build 2542/release
Comment                                  : RARBG - The.Post.2017.BRRip.XviD.MP3-XVID

Video
ID                                       : 0
Format                                   : MPEG-4 Visual
Format profile                           : [email protected]
Format settings, BVOP                    : No
Format settings, QPel                    : No
Format settings, GMC                     : No warppoints
Format settings, Matrix                  : Default (H.263)
Codec ID                                 : XVID
Codec ID/Hint                            : XviD
Duration                                 : 1 h 55 min
Bit rate                                 : 1 596 kb/s
Width                                    : 720 pixels
Height                                   : 388 pixels
Display aspect ratio                     : 1.85:1
Original display aspect ratio            : 1.85:1
Frame rate                               : 23.976 (24000/1001) FPS
Color space                              : YUV
Chroma subsampling                       : 4:2:0
Bit depth                                : 8 bits
Scan type                                : Progressive
Compression mode                         : Lossy
Bits/(Pixel*Frame)                       : 0.238
Stream size                              : 1.29 GiB (92%)
Writing library                          : Lavc57.107.100

Audio
ID                                       : 1
Format                                   : MPEG Audio
Format version                           : Version 1
Format profile                           : Layer 3
Format settings                          : Joint stereo / MS Stereo
Codec ID                                 : 55
Codec ID/Hint                            : MP3
Duration                                 : 1 h 55 min
Bit rate mode                            : Constant
Bit rate                                 : 128 kb/s
Channel(s)                               : 2 channels
Sampling rate                            : 48.0 kHz
Frame rate                               : 41.667 FPS (1152 SPF)
Compression mode                         : Lossy
Stream size                              : 106 MiB (7%)
Alignment                                : Aligned on interleaves
Interleave, duration                     : 42  ms (1.00 video frame)
Interleave, preload duration             : 504  ms
Writing library                          : LAME3.99.5

Film Detayları


 The Post

 The Post

 The Post


Film Fragmanı


Film Detayları



Zip Şifresi: filmbol.org Aşağıdaki butona tıklayarak kopyalabilirsiniz.



Uptobox ile indir

1Fichier ile indir

1Fichier'den İndiremiyor musun? Tıklayın!





Filmbol Cloud

Bunun için üzgünüz ancak, bu linke sadece premium üyeler erişebilir.




WWW


Hızlı Menü: