Filmbol Forum Film İndir FHD - FULL HD v Büyük Felaket (Deepwater Horizon) - 2016 - TR+ORG - FHD - x264 | tt1860357
Bildirimi Kapat
Merhaba , site giderlerini bir nebze olsun karşılamak adına link kısaltma servisleri kullanmaya başladık. İndirme linkleri sizi ouo.io adresinde yönlendirecek, 3 saniye geçtikten sonra Get Link butonuna tıklayarak linke ulaşacaksınız. Premium üyeler bu durumdan etkilenmeyecektir.


Premium Üyelik Al

Büyük Felaket (Deepwater Horizon) - 2016 - TR+ORG - FHD - x264 | tt1860357
BroserBros
Büyük Felaket (Deepwater Horizon) - 2016 - TR+ORG - FHD - x264 | tt1860357
0
18
  • Derecelendirme: 0/5 - 0 oy
  • 1
  • 2
  • 3
  • 4
  • 5
Konuyu Okuyanlar:2 Ziyaretçi
Şuan Online!
Filmin Yayınlanma Tarihi: 2016 
Şuan Online!
BroserBros Kurucu Admin
*******
Admin


 Büyük Felaket



Filmin öyküsü açık deniz üzerinde faal durumda olan sondaj kulesinin petrol sızdırması ve Nisan 2010 da patlaması ile Amerikan tarihindeki en büyük petrol kaçağı haline gelmesi üzerine kurulu. O gün Deepwater Horizon ‘da çalışan ve olabilecek en korkutucu şartlara maruz kalan 126 kişilik ekibin hikayesi beyazperdeye taşınıyor. İyi eğitilmiş olan karma ekip vardiyalarını tamamlayıp kıyıda bekleyen aileleriyle bir araya gelmeyi umut ederler. Ancak bir anda hayatlarındaki en kara saati yaşamaya başlayan ekip, okyanusun ortasında durdurulamaz bir yangın ile cesurca savaşmak zorunda kalırlar.
Yönetmen koltuğunda Peter Berg’in oturduğu filmin oyuncu kadrosundaMark Wahlberg, Dylan O’Brien, Kate Hudson, Kurt Russell, Gina Rodriguez, John Malkovich gibi yıldız isimler yer alıyor.

Büyük Felaket (2016) (Deepwater Horizon) | tt1860357 Filmi Imdb'den 160,000 kişi tarafından oylandı ve 7,1 puan aldı. Bu film için editör puanı %85 olarak belirlendi. İyi Seyirler!

Teknik Detaylar

Kod :
General
Unique ID                                : 92036073623827385186514759536099472083 (0x453D80C5A14D170E43E5C7017E3C32D3)
Complete name                            : /home/BroserBros/Desktop/4/Büyük.Felaket.2016.FHD.BluRay.x264.TR.ENG.Filmbol.mkv
Format                                   : Matroska
Format version                           : Version 4
File size                                : 3.86 GiB
Duration                                 : 1 h 47 min
Overall bit rate                         : 5 156 kb/s
Movie name                               : Büyük Felaket - Deepwater Horizon - 2016 | Filmbol.org
Encoded date                             : UTC 2021-07-08 09:01:21
Writing application                      : mkvmerge v53.0.0 ('Fool's Gold') 64-bit
Writing library                          : libebml v1.4.1 + libmatroska v1.6.2

Video
ID                                       : 1
Format                                   : AVC
Format/Info                              : Advanced Video Codec
Format profile                           : [email protected]
Format settings                          : CABAC / 5 Ref Frames
Format settings, CABAC                   : Yes
Format settings, Reference frames        : 5 frames
Codec ID                                 : V_MPEG4/ISO/AVC
Duration                                 : 1 h 47 min
Bit rate                                 : 4 547 kb/s
Width                                    : 1 908 pixels
Height                                   : 792 pixels
Display aspect ratio                     : 2.40:1
Frame rate mode                          : Constant
Frame rate                               : 23.976 (24000/1001) FPS
Color space                              : YUV
Chroma subsampling                       : 4:2:0
Bit depth                                : 8 bits
Scan type                                : Progressive
Bits/(Pixel*Frame)                       : 0.125
Stream size                              : 3.41 GiB (88%)
Title                                    : FHD - Filmbol.org
Language                                 : English
Default                                  : Yes
Forced                                   : No
Color range                              : Limited
Color primaries                          : BT.709
Transfer characteristics                 : BT.709
Matrix coefficients                      : BT.709

Audio #1
ID                                       : 2
Format                                   : AC-3
Format/Info                              : Audio Coding 3
Commercial name                          : Dolby Digital
Codec ID                                 : A_AC3
Duration                                 : 1 h 47 min
Bit rate mode                            : Constant
Bit rate                                 : 224 kb/s
Channel(s)                               : 2 channels
Channel layout                           : L R
Sampling rate                            : 48.0 kHz
Frame rate                               : 31.250 FPS (1536 SPF)
Compression mode                         : Lossy
Delay relative to video                  : 12 ms
Stream size                              : 172 MiB (4%)
Title                                    : Türkçe - Filmbol.org
Language                                 : Turkish
Service kind                             : Complete Main
Default                                  : Yes
Forced                                   : Yes

Audio #2
ID                                       : 3
Format                                   : AC-3
Format/Info                              : Audio Coding 3
Commercial name                          : Dolby Digital
Codec ID                                 : A_AC3
Duration                                 : 1 h 47 min
Bit rate mode                            : Constant
Bit rate                                 : 384 kb/s
Channel(s)                               : 6 channels
Channel layout                           : L R C LFE Ls Rs
Sampling rate                            : 48.0 kHz
Frame rate                               : 31.250 FPS (1536 SPF)
Compression mode                         : Lossy
Stream size                              : 295 MiB (7%)
Title                                    : Orijinal Dil - Filmbol.org
Language                                 : English
Service kind                             : Complete Main
Default                                  : No
Forced                                   : No

Text
ID                                       : 4
Format                                   : UTF-8
Codec ID                                 : S_TEXT/UTF8
Codec ID/Info                            : UTF-8 Plain Text
Duration                                 : 1 h 40 min
Bit rate                                 : 63 b/s
Count of elements                        : 1316
Stream size                              : 46.5 KiB (0%)
Title                                    : Türkçe - Filmbol.org
Language                                 : Turkish
Default                                  : No
Forced                                   : No

Film Detayları


 Büyük Felaket

 Büyük Felaket

 Büyük Felaket


Film Fragmanı


Film Detayları



Zip Şifresi: filmbol.org Aşağıdaki butona tıklayarak kopyalabilirsiniz.





Filmbol Cloud

Bunun için üzgünüz ancak, bu linke sadece premium üyeler erişebilir.




WWW


Hızlı Menü: