Filmbol Forum Film İndir UHD - ULTRA HD - 4K v Kaptan Fantastik (Captain Fantastic) - 2016 - TR+ORG - 4K (Re-Encoding 1080P) | HEVC - 10Bit-x265 | tt3553976
Bildirimi Kapat
Merhaba , site giderlerini bir nebze olsun karşılamak adına link kısaltma servisleri kullanmaya başladık. İndirme linkleri sizi ouo.io adresinde yönlendirecek, 3 saniye geçtikten sonra Get Link butonuna tıklayarak linke ulaşacaksınız. Premium üyeler bu durumdan etkilenmeyecektir.


Premium Üyelik Al

Kaptan Fantastik (Captain Fantastic) - 2016 - TR+ORG - 4K (Re-Encoding 1080P) | HEVC - 10Bit-x265 | tt3553976
BroserBros
Kaptan Fantastik (Captain Fantastic) - 2016 - TR+ORG - 4K (Re-Encoding 1080P) | HEVC - 10Bit-x265 | tt3553976
1
38
  • Derecelendirme: 0/5 - 0 oy
  • 1
  • 2
  • 3
  • 4
  • 5
Konuyu Okuyanlar:2 Ziyaretçi
Şuan Online!
Filmin Yayınlanma Tarihi: 2016 
Şuan Online!
BroserBros Kurucu Admin
*******
Admin


 Kaptan Fantastik



Ben Cash, ABD’nin Kuzeybatı Pasifik ormanlarında, 6 çocuğu ile beraber bir kabinde medeniyetten izole bir hayat yaşamaktadır. Bu izole ortamda ebeveynlik, kendi doğrularını yaratmıştır ve çocuklar moderniteye karşı bir bağışıklık kazanamamışlardır. Ben, kendini çocuklarını büyük bir titizlikle hem fiziksel hem de entelektüel olarak yetiştirmeye adamıştır. Fakat karısı Leslie’nin ölümü ormandaki “düzeni” de sarsar. Zira çocuklar annelerinin cenazesine katılmak için şehre ve medeniyete dönmek isterler. Ev eğitimi ile yetiştirdiği çocuklarının hem annesi hem babası olan Ben için bundan sonrası ormandaki hayattan daha zor olacaktır…
Viggo Mortensen başrolde olduğu etkileyici yapımın yönetmeni ve senaristi ise Matt Ross.

Kaptan Fantastik (2016) (Captain Fantastic) | tt3553976 Filmi Imdb'den 210,000 kişi tarafından oylandı ve 7,9 puan aldı. Bu film için editör puanı %89 olarak belirlendi. İyi Seyirler!

Teknik Detaylar

Kod :
General
Unique ID                                : 116536757934265379965731691173635303365 (0x57AC29C5B0518B884270AA76D5A627C5)
Complete name                            : /home/BroserBros/Desktop/3/Kaptan.Fantastik.2016.1080p.4K.BluRay.x265.10Bit.HDR.HEVC.TR.ENG.Filmbol.mkv
Format                                  : Matroska
Format version                          : Version 4
File size                                : 4.72 GiB
Duration                                : 1 h 59 min
Overall bit rate                        : 5 655 kb/s
Movie name                              : Kaptan Fantastik - Captain Fantastic - 2016 | Filmbol.org
Encoded date                            : UTC 2021-07-07 14:32:24
Writing application                      : mkvmerge v53.0.0 ('Fool's Gold') 64-bit
Writing library                          : libebml v1.4.1 + libmatroska v1.6.2

Video
ID                                      : 1
Format                                  : HEVC
Format/Info                              : High Efficiency Video Coding
Format profile                          : Main [email protected]@Main
Codec ID                                : V_MPEGH/ISO/HEVC
Duration                                : 1 h 59 min
Bit rate                                : 4 998 kb/s
Width                                    : 1 920 pixels
Height                                  : 802 pixels
Display aspect ratio                    : 2.40:1
Frame rate mode                          : Constant
Frame rate                              : 23.976 (24000/1001) FPS
Color space                              : YUV
Chroma subsampling                      : 4:2:0
Bit depth                                : 10 bits
Bits/(Pixel*Frame)                      : 0.135
Stream size                              : 4.17 GiB (88%)
Title                                    : 4K (1080P) - Filmbol.org
Writing library                          : x265 3.0+1-ed72af837053:[Windows][GCC 8.2.0][64 bit] 10bit
Encoding settings                        : cpuid=1049583 / frame-threads=3 / numa-pools=8 / wpp / no-pmode / no-pme / no-psnr / no-ssim / log-level=2 / input-csp=1 / input-res=1920x802 / interlace=0 / total-frames=171893 / level-idc=0 / high-tier=1 / uhd-bd=0 / ref=4 / no-allow-non-conformance / no-repeat-headers / annexb / no-aud / no-hrd / info / hash=0 / no-temporal-layers / open-gop / min-keyint=23 / keyint=250 / gop-lookahead=0 / bframes=8 / b-adapt=2 / b-pyramid / bframe-bias=0 / rc-lookahead=80 / lookahead-slices=4 / scenecut=40 / radl=0 / no-splice / no-intra-refresh / ctu=64 / min-cu-size=8 / no-rect / no-amp / max-tu-size=32 / tu-inter-depth=1 / tu-intra-depth=1 / limit-tu=0 / rdoq-level=2 / dynamic-rd=0.00 / no-ssim-rd / signhide / no-tskip / nr-intra=0 / nr-inter=0 / no-constrained-intra / no-strong-intra-smoothing / max-merge=3 / limit-refs=3 / limit-modes / me=3 / subme=5 / merange=57 / temporal-mvp / weightp / no-weightb / no-analyze-src-pics / deblock=-3:-3 / no-sao / no-sao-non-deblock / rd=4 / no-early-skip / rskip / no-fast-intra / no-tskip-fast / no-cu-lossless / no-b-intra / no-splitrd-skip / rdpenalty=0 / psy-rd=2.00 / psy-rdoq=1.30 / no-rd-refine / no-lossless / cbqpoffs=0 / crqpoffs=0 / rc=abr / bitrate=5000 / qcomp=0.60 / qpstep=4 / stats-write=0 / stats-read=2 / cplxblur=20.0 / qblur=0.5 / ipratio=1.40 / pbratio=1.30 / aq-mode=3 / aq-strength=1.00 / cutree / zone-count=0 / no-strict-cbr / qg-size=32 / no-rc-grain / qpmax=69 / qpmin=0 / no-const-vbv / sar=0 / overscan=0 / videoformat=5 / range=0 / colorprim=2 / transfer=2 / colormatrix=2 / chromaloc=0 / display-window=0 / max-cll=0,0 / min-luma=0 / max-luma=1023 / log2-max-poc-lsb=8 / vui-timing-info / vui-hrd-info / slices=1 / no-opt-qp-pps / no-opt-ref-list-length-pps / no-multi-pass-opt-rps / scenecut-bias=0.05 / no-opt-cu-delta-qp / no-aq-motion / no-hdr / no-hdr-opt / no-dhdr10-opt / no-idr-recovery-sei / analysis-reuse-level=5 / scale-factor=0 / refine-intra=0 / refine-inter=0 / refine-mv=0 / refine-ctu-distortion=0 / no-limit-sao / ctu-info=0 / no-lowpass-dct / refine-analysis-type=0 / copy-pic=1 / max-ausize-factor=1.0 / no-dynamic-refine / no-single-sei / no-hevc-aq / qp-adaptation-range=1.00
Default                                  : Yes
Forced                                  : No

Audio #1
ID                                      : 2
Format                                  : AC-3
Format/Info                              : Audio Coding 3
Commercial name                          : Dolby Digital
Codec ID                                : A_AC3
Duration                                : 1 h 59 min
Bit rate mode                            : Constant
Bit rate                                : 224 kb/s
Channel(s)                              : 2 channels
Channel layout                          : L R
Sampling rate                            : 48.0 kHz
Frame rate                              : 31.250 FPS (1536 SPF)
Compression mode                        : Lossy
Stream size                              : 191 MiB (4%)
Title                                    : Türkçe - Filmbol.org
Language                                : Turkish
Service kind                            : Complete Main
Default                                  : Yes
Forced                                  : No

Audio #2
ID                                      : 3
Format                                  : AAC LC
Format/Info                              : Advanced Audio Codec Low Complexity
Codec ID                                : A_AAC-2
Duration                                : 1 h 59 min
Bit rate                                : 422 kb/s
Channel(s)                              : 6 channels
Channel layout                          : C L R Ls Rs LFE
Sampling rate                            : 48.0 kHz
Frame rate                              : 46.875 FPS (1024 SPF)
Compression mode                        : Lossy
Delay relative to video                  : 20 ms
Stream size                              : 360 MiB (7%)
Title                                    : Orijinal Dil - Filmbol.org
Language                                : English
Default                                  : No
Forced                                  : No

Text #1
ID                                      : 4
Format                                  : UTF-8
Codec ID                                : S_TEXT/UTF8
Codec ID/Info                            : UTF-8 Plain Text
Duration                                : 50 s 950 ms
Bit rate                                : 117 b/s
Count of elements                        : 15
Stream size                              : 749 Bytes (0%)
Title                                    : Türkçe - Filmbol.org
Language                                : Turkish
Default                                  : Yes
Forced                                  : Yes

Text #2
ID                                      : 5
Format                                  : UTF-8
Codec ID                                : S_TEXT/UTF8
Codec ID/Info                            : UTF-8 Plain Text
Duration                                : 1 h 51 min
Bit rate                                : 43 b/s
Count of elements                        : 907
Stream size                              : 35.9 KiB (0%)
Title                                    : Türkçe - Filmbol.org
Language                                : Turkish
Default                                  : No
Forced                                  : No

Text #3
ID                                      : 6
Format                                  : PGS
Muxing mode                              : zlib
Codec ID                                : S_HDMV/PGS
Codec ID/Info                            : Picture based subtitle format used on BDs/HD-DVDs
Duration                                : 1 h 51 min
Bit rate                                : 32.7 kb/s
Count of elements                        : 2650
Stream size                              : 26.1 MiB (1%)
Title                                    : Orijinal Dil - Filmbol.org
Language                                : English
Default                                  : No
Forced                                  : No

Film Detayları


 Kaptan Fantastik

 Kaptan Fantastik

 Kaptan Fantastik


Film Fragmanı


Film Detayları



Zip Şifresi: filmbol.org Aşağıdaki butona tıklayarak kopyalabilirsiniz.


Bu filmin orijinal DVD'si 4K olarak yayınlanmadığı için, tarafımızca yeniden x265 codec yapısı ile encode edilmiş ve genişlik ve yükseklik değeri sabit kalsa da bitrate oranı artırılmıştır. Sürüm 4K ile aynı kaliteye getirilmiştir.






Filmbol Cloud

Bunun için üzgünüz ancak, bu linke sadece premium üyeler erişebilir.




WWW
Şuan Offine!
Şuan Offine!
siberrr Yeni Üye
*
Üye
  • Konular0
  • Mesajlar6
  • Rep puanı 0
çok teşekkürler


Hızlı Menü: