Filmbol Forum Film İndir FHD - FULL HD v Kaptan Fantastik (Captain Fantastic) - 2016 - TR+ORG - FHD - x264 | tt3553976
Bildirimi Kapat
Merhaba , site giderlerini bir nebze olsun karşılamak adına link kısaltma servisleri kullanmaya başladık. İndirme linkleri sizi ouo.io adresinde yönlendirecek, 3 saniye geçtikten sonra Get Link butonuna tıklayarak linke ulaşacaksınız. Premium üyeler bu durumdan etkilenmeyecektir.


Premium Üyelik Al

Kaptan Fantastik (Captain Fantastic) - 2016 - TR+ORG - FHD - x264 | tt3553976
BroserBros
Kaptan Fantastik (Captain Fantastic) - 2016 - TR+ORG - FHD - x264 | tt3553976
0
34
  • Derecelendirme: 0/5 - 0 oy
  • 1
  • 2
  • 3
  • 4
  • 5
Konuyu Okuyanlar:2 Ziyaretçi
Şuan Online!
Filmin Yayınlanma Tarihi: 2016 
Şuan Online!
BroserBros Kurucu Admin
*******
Admin


 Kaptan Fantastik



Ben Cash, ABD’nin Kuzeybatı Pasifik ormanlarında, 6 çocuğu ile beraber bir kabinde medeniyetten izole bir hayat yaşamaktadır. Bu izole ortamda ebeveynlik, kendi doğrularını yaratmıştır ve çocuklar moderniteye karşı bir bağışıklık kazanamamışlardır. Ben, kendini çocuklarını büyük bir titizlikle hem fiziksel hem de entelektüel olarak yetiştirmeye adamıştır. Fakat karısı Leslie’nin ölümü ormandaki “düzeni” de sarsar. Zira çocuklar annelerinin cenazesine katılmak için şehre ve medeniyete dönmek isterler. Ev eğitimi ile yetiştirdiği çocuklarının hem annesi hem babası olan Ben için bundan sonrası ormandaki hayattan daha zor olacaktır…
Viggo Mortensen başrolde olduğu etkileyici yapımın yönetmeni ve senaristi ise Matt Ross.

Kaptan Fantastik (2016) (Captain Fantastic) | tt3553976 Filmi Imdb'den 210,000 kişi tarafından oylandı ve 7,9 puan aldı. Bu film için editör puanı %89 olarak belirlendi. İyi Seyirler!

Teknik Detaylar

Kod :
General
Unique ID                                : 245211805133366196641394092952001085339 (0xB87A1369181B81B0A8F39D5236667F9B)
Complete name                            : /home/BroserBros/Desktop/3/Kaptan.Fantastik.2016.FHD.BluRay.x264.TR.ENG.Filmbol.mkv
Format                                  : Matroska
Format version                          : Version 4
File size                                : 6.25 GiB
Duration                                : 1 h 59 min
Overall bit rate                        : 7 485 kb/s
Movie name                              : Kaptan Fantastik - Captain Fantastic - 2016 | Filmbol.org
Encoded date                            : UTC 2021-07-07 14:27:36
Writing application                      : mkvmerge v53.0.0 ('Fool's Gold') 64-bit
Writing library                          : libebml v1.4.1 + libmatroska v1.6.2

Video
ID                                      : 1
Format                                  : AVC
Format/Info                              : Advanced Video Codec
Format profile                          : [email protected]
Format settings                          : CABAC / 4 Ref Frames
Format settings, CABAC                  : Yes
Format settings, Reference frames        : 4 frames
Codec ID                                : V_MPEG4/ISO/AVC
Duration                                : 1 h 59 min
Bit rate                                : 6 625 kb/s
Width                                    : 1 920 pixels
Height                                  : 800 pixels
Display aspect ratio                    : 2.40:1
Frame rate mode                          : Constant
Frame rate                              : 23.976 (24000/1001) FPS
Color space                              : YUV
Chroma subsampling                      : 4:2:0
Bit depth                                : 8 bits
Scan type                                : Progressive
Bits/(Pixel*Frame)                      : 0.180
Stream size                              : 5.52 GiB (88%)
Title                                    : FHD - Filmbol.org
Writing library                          : x264 core 148 r2744 b97ae06
Encoding settings                        : cabac=1 / ref=5 / deblock=1:0:0 / analyse=0x3:0x113 / me=umh / subme=11 / psy=1 / psy_rd=1.00:0.00 / mixed_ref=1 / me_range=32 / chroma_me=1 / trellis=2 / 8x8dct=1 / cqm=0 / deadzone=21,11 / fast_pskip=1 / chroma_qp_offset=-2 / threads=6 / lookahead_threads=1 / sliced_threads=0 / slices=4 / nr=0 / decimate=1 / interlaced=0 / bluray_compat=0 / constrained_intra=0 / bframes=3 / b_pyramid=1 / b_adapt=1 / b_bias=0 / direct=3 / weightb=1 / open_gop=0 / weightp=2 / keyint=240 / keyint_min=24 / scenecut=40 / intra_refresh=0 / rc_lookahead=50 / rc=2pass / mbtree=1 / bitrate=6625 / ratetol=1.0 / qcomp=0.60 / qpmin=0 / qpmax=69 / qpstep=4 / cplxblur=20.0 / qblur=0.5 / vbv_maxrate=50000 / vbv_bufsize=50000 / nal_hrd=none / filler=0 / ip_ratio=1.40 / aq=3:1.00
Language                                : English
Default                                  : Yes
Forced                                  : No

Audio #1
ID                                      : 2
Format                                  : AC-3
Format/Info                              : Audio Coding 3
Commercial name                          : Dolby Digital
Codec ID                                : A_AC3
Duration                                : 1 h 59 min
Bit rate mode                            : Constant
Bit rate                                : 224 kb/s
Channel(s)                              : 2 channels
Channel layout                          : L R
Sampling rate                            : 48.0 kHz
Frame rate                              : 31.250 FPS (1536 SPF)
Compression mode                        : Lossy
Stream size                              : 191 MiB (3%)
Title                                    : Türkçe - Filmbol.org
Language                                : Turkish
Service kind                            : Complete Main
Default                                  : Yes
Forced                                  : No

Audio #2
ID                                      : 3
Format                                  : AC-3
Format/Info                              : Audio Coding 3
Commercial name                          : Dolby Digital
Codec ID                                : A_AC3
Duration                                : 1 h 59 min
Bit rate mode                            : Constant
Bit rate                                : 640 kb/s
Channel(s)                              : 6 channels
Channel layout                          : L R C LFE Ls Rs
Sampling rate                            : 48.0 kHz
Frame rate                              : 31.250 FPS (1536 SPF)
Compression mode                        : Lossy
Stream size                              : 547 MiB (9%)
Title                                    : Orijinal Dil - Filmbol.org
Language                                : English
Service kind                            : Complete Main
Default                                  : No
Forced                                  : No

Text #1
ID                                      : 4
Format                                  : UTF-8
Codec ID                                : S_TEXT/UTF8
Codec ID/Info                            : UTF-8 Plain Text
Duration                                : 50 s 950 ms
Bit rate                                : 117 b/s
Count of elements                        : 15
Stream size                              : 749 Bytes (0%)
Title                                    : Türkçe - Filmbol.org
Language                                : Turkish
Default                                  : Yes
Forced                                  : Yes

Text #2
ID                                      : 5
Format                                  : UTF-8
Codec ID                                : S_TEXT/UTF8
Codec ID/Info                            : UTF-8 Plain Text
Duration                                : 1 h 51 min
Bit rate                                : 43 b/s
Count of elements                        : 907
Stream size                              : 35.9 KiB (0%)
Title                                    : Türkçe - Filmbol.org
Language                                : Turkish
Default                                  : No
Forced                                  : No

Text #3
ID                                      : 6
Format                                  : UTF-8
Codec ID                                : S_TEXT/UTF8
Codec ID/Info                            : UTF-8 Plain Text
Duration                                : 1 h 51 min
Bit rate                                : 47 b/s
Count of elements                        : 1324
Stream size                              : 39.2 KiB (0%)
Title                                    : Orijinal Dil - Filmbol.org
Language                                : English
Default                                  : No
Forced                                  : No

Film Detayları


 Kaptan Fantastik

 Kaptan Fantastik

 Kaptan Fantastik


Film Fragmanı


Film Detayları



Zip Şifresi: filmbol.org Aşağıdaki butona tıklayarak kopyalabilirsiniz.





Filmbol Cloud

Bunun için üzgünüz ancak, bu linke sadece premium üyeler erişebilir.




WWW


Hızlı Menü: