Filmbol Forum Film İndir 1080P v Wonder Woman 2 (Wonder Woman 1984) - 2020 - TR+ORG - 1080P | tt7126948
Bildirimi Kapat
Merhaba , site giderlerini bir nebze olsun karşılamak adına link kısaltma servisleri kullanmaya başladık. İndirme linkleri sizi ouo.io adresinde yönlendirecek, 3 saniye geçtikten sonra Get Link butonuna tıklayarak linke ulaşacaksınız. Premium üyeler bu durumdan etkilenmeyecektir.


Premium Üyelik Al

Wonder Woman 2 (Wonder Woman 1984) - 2020 - TR+ORG - 1080P | tt7126948
TheSteeL
Wonder Woman 2 (Wonder Woman 1984) - 2020 - TR+ORG - 1080P | tt7126948
7
394
  • Derecelendirme: 0/5 - 0 oy
  • 1
  • 2
  • 3
  • 4
  • 5
Konuyu Okuyanlar:4 Ziyaretçi
Şuan Online!
Filmin Yayınlanma Tarihi: 2020 
Şuan Online!
TheSteeL Chief Executive Officer
******
CEO


 Wonder Woman 2



DC evreninin baş kahramanlarından gelen Wonder Woman'ın ikinci filmi bizi 1980'li yıllara götürerek müthiş bir aksiyon eşliğinde ve bilim kurgu tarzında yeni bir film yansıtıyor. Wonder Woman'ın yani Diana Prince'e WW görevi verildikten sonra yapması gereken işler ve üstüne binen sorumluluklar sürekli olarak artış göstermeye devam etmiştir. Fakat Diana, bu görevlerin üstesinden gelmeyi her zaman başarmış, halkına ve iyi insanlara koruma sağlamıştır. Fakat yeni rakipleri diğerlerinden çok farklı ve Diana'nın boyunu aşacak şekilde üzerine gelmektedirler. Diana şaşırtıcı rakiplerine karşı daha acımasız olmak zorunda ve kendini sürekli geliştirmek zorundadır...

Wonder Woman 2 (2020) | tt7126948 Filmi Imdb'den 217000 kişi tarafından oylandı ve 5,4 puan aldı. Bu film için editör puanı %70 olarak belirlendi. İyi Seyirler!

Teknik Detaylar

Kod :
General
Unique ID                                : 249016024919866802460575299288823572691 (0xBB56BDED533F6D06CC3DDC0168CD28D3)
Complete name                            : /home/TheSteel/Desktop/5/Wonder.Woman.2.2020.1080p.Bluray.x264.TR.ENG.Filmbol.mkv
Format                                   : Matroska
Format version                           : Version 4
File size                                : 3.26 GiB
Duration                                 : 2 h 31 min
Overall bit rate                         : 3 084 kb/s
Movie name                               : Wonder Woman 1984 - Wonder Woman 2 - 2020 | Filmbol.org
Encoded date                             : UTC 2021-07-15 13:20:16
Writing application                      : mkvmerge v31.0.0 ('Dolores In A Shoestand') 64-bit
Writing library                          : libebml v1.3.6 + libmatroska v1.4.9

Video
ID                                       : 1
Format                                   : AVC
Format/Info                              : Advanced Video Codec
Format profile                           : [email protected]
Format settings                          : CABAC / 4 Ref Frames
Format settings, CABAC                   : Yes
Format settings, Reference frames        : 4 frames
Codec ID                                 : V_MPEG4/ISO/AVC
Duration                                 : 2 h 31 min
Bit rate                                 : 2 250 kb/s
Width                                    : 1 920 pixels
Height                                   : 1 008 pixels
Display aspect ratio                     : 1.905
Frame rate mode                          : Constant
Frame rate                               : 23.976 (24000/1001) FPS
Color space                              : YUV
Chroma subsampling                       : 4:2:0
Bit depth                                : 8 bits
Scan type                                : Progressive
Bits/(Pixel*Frame)                       : 0.048
Stream size                              : 2.37 GiB (73%)
Title                                    : Wonder Woman 1984 - Wonder Woman 2 - 2020 | Filmbol.org
Writing library                          : x264 core 161
Encoding settings                        : cabac=1 / ref=4 / deblock=1:-1:-1 / analyse=0x3:0x133 / me=umh / subme=9 / psy=1 / psy_rd=1.00:0.15 / mixed_ref=1 / me_range=24 / chroma_me=1 / trellis=2 / 8x8dct=1 / cqm=0 / deadzone=21,11 / fast_pskip=0 / chroma_qp_offset=-3 / threads=24 / lookahead_threads=2 / sliced_threads=0 / nr=0 / decimate=1 / interlaced=0 / bluray_compat=0 / constrained_intra=0 / bframes=3 / b_pyramid=2 / b_adapt=2 / b_bias=0 / direct=3 / weightb=1 / open_gop=0 / weightp=2 / keyint=250 / keyint_min=23 / scenecut=40 / intra_refresh=0 / rc_lookahead=60 / rc=2pass / mbtree=1 / bitrate=2250 / ratetol=1.0 / qcomp=0.60 / qpmin=0 / qpmax=69 / qpstep=4 / cplxblur=20.0 / qblur=0.5 / vbv_maxrate=31250 / vbv_bufsize=31250 / nal_hrd=none / filler=0 / ip_ratio=1.40 / aq=1:1.00
Default                                  : Yes
Forced                                   : No
Color range                              : Limited
Color primaries                          : BT.709
Transfer characteristics                 : BT.709
Matrix coefficients                      : BT.709

Audio #1
ID                                       : 2
Format                                   : AC-3
Format/Info                              : Audio Coding 3
Commercial name                          : Dolby Digital
Codec ID                                 : A_AC3
Duration                                 : 2 h 31 min
Bit rate mode                            : Constant
Bit rate                                 : 384 kb/s
Channel(s)                               : 6 channels
Channel layout                           : L R C LFE Ls Rs
Sampling rate                            : 48.0 kHz
Frame rate                               : 31.250 FPS (1536 SPF)
Compression mode                         : Lossy
Stream size                              : 415 MiB (12%)
Title                                    : Wonder Woman 1984 - Wonder Woman 2 - 2020 | Filmbol.org
Language                                 : Turkish
Service kind                             : Complete Main
Default                                  : Yes
Forced                                   : No

Audio #2
ID                                       : 3
Format                                   : AC-3
Format/Info                              : Audio Coding 3
Commercial name                          : Dolby Digital
Codec ID                                 : A_AC3
Duration                                 : 2 h 31 min
Bit rate mode                            : Constant
Bit rate                                 : 448 kb/s
Channel(s)                               : 6 channels
Channel layout                           : L R C LFE Ls Rs
Sampling rate                            : 48.0 kHz
Frame rate                               : 31.250 FPS (1536 SPF)
Compression mode                         : Lossy
Stream size                              : 484 MiB (15%)
Title                                    : Wonder Woman 1984 - Wonder Woman 2 - 2020 | Filmbol.org
Language                                 : English
Service kind                             : Complete Main
Default                                  : No
Forced                                   : No

Text #1
ID                                       : 4
Format                                   : UTF-8
Codec ID                                 : S_TEXT/UTF8
Codec ID/Info                            : UTF-8 Plain Text
Duration                                 : 2 h 15 min
Bit rate                                 : 0 b/s
Count of elements                        : 29
Stream size                              : 821 Bytes (0%)
Title                                    : Wonder Woman 1984 - Wonder Woman 2 - 2020 | Filmbol.org
Language                                 : Turkish
Default                                  : Yes
Forced                                   : Yes

Text #2
ID                                       : 5
Format                                   : UTF-8
Codec ID                                 : S_TEXT/UTF8
Codec ID/Info                            : UTF-8 Plain Text
Duration                                 : 2 h 30 min
Bit rate                                 : 48 b/s
Count of elements                        : 1822
Stream size                              : 53.3 KiB (0%)
Title                                    : Wonder Woman 1984 - Wonder Woman 2 - 2020 | Filmbol.org
Language                                 : Turkish
Default                                  : No
Forced                                   : No

Film Detayları


 Wonder Woman 2

 Wonder Woman 2

 Wonder Woman 2


Film Fragmanı


Film Detayları



Zip Şifresi: filmbol.org Aşağıdaki butona tıklayarak kopyalabilirsiniz.


Uptobox ile indir

1Fichier ile indir

1Fichier'den İndiremiyor musun? Tıklayın!





Filmbol Cloud

Bunun için üzgünüz ancak, bu linke sadece premium üyeler erişebilir.




WWW
Şuan Online!
Şuan Online!
Aspirin46 Süper Üye
***
Super Üye
  • Konular0
  • Mesajlar93
  • Rep puanı 0
süper
Şuan Online!
Şuan Online!
TheSteeL Chief Executive Officer
******
CEO
(26-07-2021, Saat: 14:54)Aspirin46 Adlı Kullanıcıdan Alıntı: süper
İyi Seyirler
Şuan Offine!
Şuan Offine!
Vatansever Uzman Üye
**
Uzman Üye
  • Konular0
  • Mesajlar47
  • Rep puanı 0
Teşekkürler  TheSteeL   Heart
Şuan Online!
Şuan Online!
TheSteeL Chief Executive Officer
******
CEO
(01-08-2021, Saat: 12:32)Vatansever Adlı Kullanıcıdan Alıntı: Teşekkürler  TheSteeL   Heart
İyi Seyirler
Şuan Offine!
Şuan Offine!
qurizma Yeni Üye
*
Üye
  • Konular0
  • Mesajlar12
  • Rep puanı 0
Teşekkürler.
Şuan Online!
Şuan Online!
TheSteeL Chief Executive Officer
******
CEO
(01-08-2021, Saat: 16:05)qurizma Adlı Kullanıcıdan Alıntı: Teşekkürler.
İyi Seyirler
Şuan Offine!
Şuan Offine!
Horoz Beyaz Yeni Üye
*
Üye
  • Konular0
  • Mesajlar1
  • Rep puanı 0
süper film

teşekkürler emeğinize sağlık


Hızlı Menü: