Filmbol Forum Film İndir BRRip XviD v Wonder Woman 2 (Wonder Woman 1984) - 2020 - TR - BRRip XviD | tt7126948
Bildirimi Kapat
Merhaba , site giderlerini bir nebze olsun karşılamak adına link kısaltma servisleri kullanmaya başladık. İndirme linkleri sizi ouo.io adresinde yönlendirecek, 3 saniye geçtikten sonra Get Link butonuna tıklayarak linke ulaşacaksınız. Premium üyeler bu durumdan etkilenmeyecektir.


Premium Üyelik Al

Wonder Woman 2 (Wonder Woman 1984) - 2020 - TR - BRRip XviD | tt7126948
TheSteeL
Wonder Woman 2 (Wonder Woman 1984) - 2020 - TR - BRRip XviD | tt7126948
11
3946
  • Derecelendirme: 0/5 - 0 oy
  • 1
  • 2
  • 3
  • 4
  • 5
Konuyu Okuyanlar:1 Ziyaretçi
Şuan Online!
Filmin Yayınlanma Tarihi: 2020 
Şuan Online!
TheSteeL Chief Executive Officer
******
CEO


 Wonder Woman 2



DC evreninin baş kahramanlarından gelen Wonder Woman'ın ikinci filmi bizi 1980'li yıllara götürerek müthiş bir aksiyon eşliğinde ve bilim kurgu tarzında yeni bir film yansıtıyor. Wonder Woman'ın yani Diana Prince'e WW görevi verildikten sonra yapması gereken işler ve üstüne binen sorumluluklar sürekli olarak artış göstermeye devam etmiştir. Fakat Diana, bu görevlerin üstesinden gelmeyi her zaman başarmış, halkına ve iyi insanlara koruma sağlamıştır. Fakat yeni rakipleri diğerlerinden çok farklı ve Diana'nın boyunu aşacak şekilde üzerine gelmektedirler. Diana şaşırtıcı rakiplerine karşı daha acımasız olmak zorunda ve kendini sürekli geliştirmek zorundadır...

Wonder Woman 2 (2020) (Wonder Woman 1984) | tt7126948 Filmi Imdb'den 217000 kişi tarafından oylandı ve 5,4 puan aldı. Bu film için editör puanı %70 olarak belirlendi. İyi Seyirler!

Teknik Detaylar

Kod :
General
Unique ID                                : 15374581139730893865196812685817418084 (0xB91095FECACD3C0ECBAFE38D0741164)
Complete name                            : /home/TheSteel/Desktop/5/Wonder.Woman.2.2020.IMAX.BDRip.XViD.TR.Filmbol.avi
Format                                  : Matroska
Format version                          : Version 4
File size                                : 1.45 GiB
Duration                                : 2 h 31 min
Overall bit rate                        : 1 373 kb/s
Movie name                              : Wonder Woman 1984 - Wonder Woman 2 - 2020 | Filmbol.org
Encoded date                            : UTC 2021-07-15 13:18:41
Writing application                      : mkvmerge v31.0.0 ('Dolores In A Shoestand') 64-bit
Writing library                          : libebml v1.3.6 + libmatroska v1.4.9
FileExtension_Invalid                    : mkv mk3d mka mks

Video
ID                                      : 1
Format                                  : MPEG-4 Visual
Format profile                          : Advanced [email protected]
Format settings                          : BVOP1 / Custom Matrix
Format settings, BVOP                    : 1
Format settings, QPel                    : No
Format settings, GMC                    : No warppoints
Format settings, Matrix                  : Custom
Codec ID                                : V_MS/VFW/FOURCC / XVID
Codec ID/Hint                            : XviD
Duration                                : 2 h 31 min
Bit rate                                : 1 243 kb/s
Width                                    : 720 pixels
Height                                  : 384 pixels
Display aspect ratio                    : 1.85:1
Frame rate mode                          : Constant
Frame rate                              : 23.976 (23976/1000) FPS
Color space                              : YUV
Chroma subsampling                      : 4:2:0
Bit depth                                : 8 bits
Scan type                                : Progressive
Compression mode                        : Lossy
Bits/(Pixel*Frame)                      : 0.187
Stream size                              : 1.31 GiB (91%)
Title                                    : Wonder Woman 1984 - Wonder Woman 2 - 2020 | Filmbol.org
Writing library                          : XviD 73
Default                                  : Yes
Forced                                  : No

Audio
ID                                      : 2
Format                                  : MPEG Audio
Format version                          : Version 1
Format profile                          : Layer 3
Format settings                          : Joint stereo / MS Stereo
Codec ID                                : A_MPEG/L3
Codec ID/Hint                            : MP3
Duration                                : 2 h 31 min
Bit rate mode                            : Constant
Bit rate                                : 128 kb/s
Channel(s)                              : 2 channels
Sampling rate                            : 48.0 kHz
Frame rate                              : 41.667 FPS (1152 SPF)
Compression mode                        : Lossy
Stream size                              : 138 MiB (9%)
Title                                    : Wonder Woman 1984 - Wonder Woman 2 - 2020 | Filmbol.org
Default                                  : Yes
Forced                                  : No

Film Detayları


 Wonder Woman 2

 Wonder Woman 2

 Wonder Woman 2


Film Fragmanı


Film Detayları



Zip Şifresi: filmbol.org Aşağıdaki butona tıklayarak kopyalabilirsiniz.



Uptobox ile indir

1Fichier ile indir

1Fichier'den İndiremiyor musun? Tıklayın!





Filmbol Cloud

Bunun için üzgünüz ancak, bu linke sadece premium üyeler erişebilir.




WWW
Şuan Online!
Şuan Online!
algül Süper Üye
***
Super Üye
  • Konular0
  • Mesajlar77
  • Rep puanı 0
çok sağol...
Şuan Online!
Şuan Online!
TheSteeL Chief Executive Officer
******
CEO
(17-07-2021, Saat: 01:36)algül Adlı Kullanıcıdan Alıntı: çok sağol...
İyi Seyirler
Şuan Offine!
Şuan Offine!
byerdinc Yeni Üye
*
Üye
  • Konular0
  • Mesajlar3
  • Rep puanı 0
sağolasın

sağolasın
Şuan Online!
Şuan Online!
TheSteeL Chief Executive Officer
******
CEO
(25-07-2021, Saat: 13:13)byerdinc Adlı Kullanıcıdan Alıntı: sağolasın

sağolasın
İyi Seyirler
Şuan Offine!
Şuan Offine!
müveddet hala Yeni Üye
*
Üye
  • Konular0
  • Mesajlar3
  • Rep puanı 0
çok teşekkür ederim emeğinize sağlık  Heart
Şuan Online!
Şuan Online!
TheSteeL Chief Executive Officer
******
CEO
(26-07-2021, Saat: 00:31)müveddet hala Adlı Kullanıcıdan Alıntı: çok teşekkür ederim emeğinize sağlık  Heart
İyi Seyirler
Şuan Offine!
Şuan Offine!
qurizma Yeni Üye
*
Üye
  • Konular0
  • Mesajlar12
  • Rep puanı 0
Teşekkürler
Şuan Online!
Şuan Online!
TheSteeL Chief Executive Officer
******
CEO
(01-08-2021, Saat: 15:44)qurizma Adlı Kullanıcıdan Alıntı: Teşekkürler
İyi Seyirler
Şuan Offine!
Şuan Offine!
huysuz66 Yeni Üye
*
Üye
  • Konular0
  • Mesajlar4
  • Rep puanı 0
teşekkürlerrrrrrrrrrrrrrrrrrr


Hızlı Menü: