Filmbol Forum Film İndir BRRip XviD v İntikam Benim: Misilleme (I Am Vengeance: Retaliation) - 2020 - TR - BRRip XviD | tt8972556
Bildirimi Kapat
Merhaba , site giderlerini bir nebze olsun karşılamak adına link kısaltma servisleri kullanmaya başladık. İndirme linkleri sizi ouo.io adresinde yönlendirecek, 3 saniye geçtikten sonra Get Link butonuna tıklayarak linke ulaşacaksınız. Premium üyeler bu durumdan etkilenmeyecektir.


Premium Üyelik Al

İntikam Benim: Misilleme (I Am Vengeance: Retaliation) - 2020 - TR - BRRip XviD | tt8972556
TheSteeL
İntikam Benim: Misilleme (I Am Vengeance: Retaliation) - 2020 - TR - BRRip XviD | tt8972556
2
2223
  • Derecelendirme: 0/5 - 0 oy
  • 1
  • 2
  • 3
  • 4
  • 5
Konuyu Okuyanlar:2 Ziyaretçi
Şuan Online!
Filmin Yayınlanma Tarihi: 2020 
Şuan Online!
TheSteeL Chief Executive Officer
******
CEO


 İntikam Benim: Misilleme



Serinin ikincisi ve devam filmi olan filmde, yine aksiyon sahneleri bizi bekliyor. Her ne kadar bir üst seviye film olmasa da, izleyiciler için çerezlik bir film olarak karşımıza çıkıyor. İlk filmi izleyenlerin hatırlayacağı üzere, John'un uğradığı ihanetin ardından John kendine net bir söz vermiştir. Yeniden eski ekibine karşı savaşa girecek ve kendisine ihanet eden kişilere cezasını verecek, intikamını almaya çalışacaktır...

İntikam Benim: Misilleme (2020) (I Am Vengeance: Retaliation) | tt8972556 Filmi Imdb'den 1000 kişi tarafından oylandı ve 3,5 puan aldı. Bu film için editör puanı %45 olarak belirlendi. İyi Seyirler!

Teknik Detaylar

Kod :
General
Unique ID                                : 255133651265959484520085838486699939802 (0xBFF0F43170AAE93EBD97C9B80C6E97DA)
Complete name                            : /home/TheSteel/Desktop/4/İntikam.Benim.Misilleme.2020.BDRip.XViD.TR.Filmbol.avi
Format                                   : Matroska
Format version                           : Version 4
File size                                : 1.09 GiB
Duration                                 : 1 h 22 min
Overall bit rate                         : 1 893 kb/s
Movie name                               : I Am Vengeance: Retaliation - İntikam Benim: Misilleme - 2020 | Filmbol.org
Encoded date                             : UTC 2021-07-10 16:27:13
Writing application                      : mkvmerge v31.0.0 ('Dolores In A Shoestand') 64-bit
Writing library                          : libebml v1.3.6 + libmatroska v1.4.9
FileExtension_Invalid                    : mkv mk3d mka mks

Video
ID                                       : 1
Format                                   : MPEG-4 Visual
Format profile                           : Advanced [email protected]
Format settings                          : BVOP1 / Custom Matrix
Format settings, BVOP                    : 1
Format settings, QPel                    : No
Format settings, GMC                     : No warppoints
Format settings, Matrix                  : Custom
Codec ID                                 : V_MS/VFW/FOURCC / XVID
Codec ID/Hint                            : XviD
Duration                                 : 1 h 22 min
Bit rate                                 : 1 763 kb/s
Width                                    : 720 pixels
Height                                   : 304 pixels
Display aspect ratio                     : 2.35:1
Frame rate mode                          : Constant
Frame rate                               : 23.976 (23976/1000) FPS
Color space                              : YUV
Chroma subsampling                       : 4:2:0
Bit depth                                : 8 bits
Scan type                                : Progressive
Compression mode                         : Lossy
Bits/(Pixel*Frame)                       : 0.336
Stream size                              : 1.01 GiB (93%)
Title                                    : I Am Vengeance: Retaliation - İntikam Benim: Misilleme - 2020 | Filmbol.org
Writing library                          : XviD 73
Default                                  : Yes
Forced                                   : No

Audio
ID                                       : 2
Format                                   : MPEG Audio
Format version                           : Version 1
Format profile                           : Layer 3
Format settings                          : Joint stereo / MS Stereo
Codec ID                                 : A_MPEG/L3
Codec ID/Hint                            : MP3
Duration                                 : 1 h 22 min
Bit rate mode                            : Constant
Bit rate                                 : 128 kb/s
Channel(s)                               : 2 channels
Sampling rate                            : 48.0 kHz
Frame rate                               : 41.667 FPS (1152 SPF)
Compression mode                         : Lossy
Stream size                              : 75.3 MiB (7%)
Title                                    : I Am Vengeance: Retaliation - İntikam Benim: Misilleme - 2020 | Filmbol.org
Writing library                          : LAME3.99.5
Default                                  : Yes
Forced                                   : No

Film Detayları


 İntikam Benim: Misilleme

 İntikam Benim: Misilleme

 İntikam Benim: Misilleme


Film Fragmanı


Film Detayları



Zip Şifresi: filmbol.org Aşağıdaki butona tıklayarak kopyalabilirsiniz.



Uptobox ile indir

1Fichier ile indir

1Fichier'den İndiremiyor musun? Tıklayın!





Filmbol Cloud

Bunun için üzgünüz ancak, bu linke sadece premium üyeler erişebilir.




WWW
Şuan Offine!
Şuan Offine!
huysuz66 Yeni Üye
*
Üye
  • Konular0
  • Mesajlar4
  • Rep puanı 0
teşekkürlerrrrrrrrrrrrrrrrrrrrrrrr

teşekkürler güzel film
Şuan Online!
Şuan Online!
TheSteeL Chief Executive Officer
******
CEO
(08-08-2021, Saat: 21:30)huysuz66 Adlı Kullanıcıdan Alıntı: teşekkürlerrrrrrrrrrrrrrrrrrrrrrrr

teşekkürler güzel film
İyi Seyirler Harf Uzatımı Yapmazsanız Sevinirim.


Hızlı Menü: