Filmbol Forum Film İndir 1080P v Acı Kiraz (Aci Kiraz) - 2020 - TR+ORG - 1080P | tt11768356
Bildirimi Kapat
Merhaba , site giderlerini bir nebze olsun karşılamak adına link kısaltma servisleri kullanmaya başladık. İndirme linkleri sizi ouo.io adresinde yönlendirecek, 3 saniye geçtikten sonra Get Link butonuna tıklayarak linke ulaşacaksınız. Premium üyeler bu durumdan etkilenmeyecektir.


Premium Üyelik Al

Acı Kiraz (Aci Kiraz) - 2020 - TR+ORG - 1080P | tt11768356
TheSteeL
Acı Kiraz (Aci Kiraz) - 2020 - TR+ORG - 1080P | tt11768356
4
243
  • Derecelendirme: 0/5 - 0 oy
  • 1
  • 2
  • 3
  • 4
  • 5
Konuyu Okuyanlar:3 Ziyaretçi
Şuan Online!
Filmin Yayınlanma Tarihi: 2020 
Şuan Online!
TheSteeL Chief Executive Officer
******
CEO


 Acı Kiraz



Yerli bir film olan Acı Kiraz filmi, Serdar Akar'ın yönetmenliğinde bir dram filmi olarak karşımıza çıkıyor. İlginç bir yapısı olsa da, konu günlük hayatta karşılaşacağımız kişiler ile başlıyor. Fazlasıyla borçlu, dermansız hastalığı olan, sahtekâr, göçmenleri ve daha bir çok sıkıntılı insanları konu ediniyor. Ancak bu insanların aynı filme koyan olay, her türden bu insanların bir kiraz ağacının gölgesine oturması ile canlanıyor...

Acı Kiraz (2020) | tt11768356 Filmi Imdb'den 300 kişi tarafından oylandı ve 5,1 puan aldı. Bu film için editör puanı %60 olarak belirlendi. İyi Seyirler!

Teknik Detaylar

Kod :
General
Unique ID                                : 114672429843107732276975517408264318282 (0x56451B4CF575F1F998B008329C1DED4A)
Complete name                            : /home/TheSteel/Desktop/2/Aci.Kiraz.2020.1080p.WEB-DL.x264.TR.ENG.Filmbol.mkv
Format                                   : Matroska
Format version                           : Version 4
File size                                : 1.98 GiB
Duration                                 : 1 h 34 min
Overall bit rate                         : 3 009 kb/s
Movie name                               : Acı Kiraz - Aci Kiraz - 2020 | Filmbol.org
Encoded date                             : UTC 2021-07-10 16:09:46
Writing application                      : mkvmerge v31.0.0 ('Dolores In A Shoestand') 64-bit
Writing library                          : libebml v1.3.6 + libmatroska v1.4.9

Video
ID                                       : 1
Format                                   : AVC
Format/Info                              : Advanced Video Codec
Format profile                           : [email protected]
Format settings                          : CABAC / 4 Ref Frames
Format settings, CABAC                   : Yes
Format settings, Reference frames        : 4 frames
Codec ID                                 : V_MPEG4/ISO/AVC
Duration                                 : 1 h 34 min
Bit rate                                 : 2 623 kb/s
Width                                    : 1 920 pixels
Height                                   : 1 080 pixels
Display aspect ratio                     : 16:9
Frame rate mode                          : Constant
Frame rate                               : 24.000 FPS
Color space                              : YUV
Chroma subsampling                       : 4:2:0
Bit depth                                : 8 bits
Scan type                                : Progressive
Bits/(Pixel*Frame)                       : 0.053
Stream size                              : 1.73 GiB (87%)
Title                                    : Acı Kiraz - Aci Kiraz - 2020 | Filmbol.org
Writing library                          : x264 core 157 r2932 303c484
Encoding settings                        : cabac=1 / ref=3 / deblock=1:0:0 / analyse=0x3:0x113 / me=hex / subme=7 / psy=1 / psy_rd=1.00:0.00 / mixed_ref=1 / me_range=16 / chroma_me=1 / trellis=1 / 8x8dct=1 / cqm=0 / deadzone=21,11 / fast_pskip=1 / chroma_qp_offset=-2 / threads=24 / lookahead_threads=4 / sliced_threads=0 / nr=0 / decimate=1 / interlaced=0 / bluray_compat=0 / constrained_intra=0 / bframes=3 / b_pyramid=2 / b_adapt=1 / b_bias=0 / direct=1 / weightb=1 / open_gop=0 / weightp=2 / keyint=250 / keyint_min=25 / scenecut=40 / intra_refresh=0 / rc_lookahead=40 / rc=crf / mbtree=1 / crf=21.0 / qcomp=0.60 / qpmin=0 / qpmax=69 / qpstep=4 / ip_ratio=1.40 / aq=1:1.00
Default                                  : Yes
Forced                                   : No

Audio
ID                                       : 2
Format                                   : AC-3
Format/Info                              : Audio Coding 3
Commercial name                          : Dolby Digital
Codec ID                                 : A_AC3
Duration                                 : 1 h 34 min
Bit rate mode                            : Constant
Bit rate                                 : 384 kb/s
Channel(s)                               : 6 channels
Channel layout                           : L R C LFE Ls Rs
Sampling rate                            : 48.0 kHz
Frame rate                               : 31.250 FPS (1536 SPF)
Compression mode                         : Lossy
Stream size                              : 259 MiB (13%)
Title                                    : Acı Kiraz - Aci Kiraz - 2020 | Filmbol.org
Language                                 : Turkish
Service kind                             : Complete Main
Default                                  : Yes
Forced                                   : No

Film Detayları


 Acı Kiraz

 Acı Kiraz

 Acı Kiraz


Film Fragmanı


Film Detayları



Zip Şifresi: filmbol.org Aşağıdaki butona tıklayarak kopyalabilirsiniz.


Uptobox ile indir

1Fichier ile indir

1Fichier'den İndiremiyor musun? Tıklayın!





Filmbol Cloud

Bunun için üzgünüz ancak, bu linke sadece premium üyeler erişebilir.




WWW
Şuan Offine!
Şuan Offine!
ogi3 Yeni Üye
*
Üye
  • Konular0
  • Mesajlar4
  • Rep puanı 0
amirim benim ya
Şuan Online!
Şuan Online!
Aspirin46 Süper Üye
***
Super Üye
  • Konular0
  • Mesajlar93
  • Rep puanı 0
süper
Şuan Online!
Şuan Online!
TheSteeL Chief Executive Officer
******
CEO
(27-07-2021, Saat: 13:48)Aspirin46 Adlı Kullanıcıdan Alıntı: süper
İyi Seyirler
Şuan Offine!
Şuan Offine!
ghosthunter Yeni Üye
*
Üye
  • Konular0
  • Mesajlar23
  • Rep puanı 0
tesekurler


Hızlı Menü: