Filmbol Forum Film İndir 1080P v Robocop (RoboCop) - 2014 - TR+ORG - 1080P | tt1234721
Bildirimi Kapat
Merhaba , site giderlerini bir nebze olsun karşılamak adına link kısaltma servisleri kullanmaya başladık. İndirme linkleri sizi ouo.io adresinde yönlendirecek, 3 saniye geçtikten sonra Get Link butonuna tıklayarak linke ulaşacaksınız. Premium üyeler bu durumdan etkilenmeyecektir.


Premium Üyelik Al

Robocop (RoboCop) - 2014 - TR+ORG - 1080P | tt1234721
TheSteeL
Robocop (RoboCop) - 2014 - TR+ORG - 1080P | tt1234721
0
98
  • Derecelendirme: 0/5 - 0 oy
  • 1
  • 2
  • 3
  • 4
  • 5
Konuyu Okuyanlar:2 Ziyaretçi
Şuan Online!
Filmin Yayınlanma Tarihi: 2014 
Şuan Online!
TheSteeL Chief Executive Officer
******
CEO


 Robocop



Robocop, günümüzden çok ileri bir zamanı baz alıyor. Teknolojinin ilerlemesi ile doğru orantılı olarak ilginç bir şekilde suç oranı da artmıştır. Bu artış ile birlikte, insanoğlu suçla mücadele için yeni çözümler üretmeye başlamıştır. Bu işi açık ara en iyi şekilde yapan OmniCorp, dünyanın en zengin şirketi olmayı başarmış ve sürekli kendini geliştirmeye devam etmektedir. Çıkardığı tamamen robot polisler görevleri yerine getirme konusunda tüm insanlığın onayı almıştır. Bu durumda durdurulamaz bir güç haline gelen OmniCorp, yeni teknolojilerini üretmeye başlamıştır. Bu yeni teknoloji yarı insan ve yarı robot olan bir polis içermektedir. Fakat bu işlemi gerçekleştirebilmek için şirkete kobay lazımdır. Alex Murphy ise bir polis memuru olsa da geçireceği kaza ile yaşam olanağını sıfır olur. Bu durumda şirketin yeni test insanı yarı insan yarı robot olan Murphy, yani RoboCop olacaktır. Fakat herşey şirketin planladığı gibi gitmeyecektir...

Robocop (2014) | tt1234721 Filmi Imdb'den 219000 kişi tarafından oylandı ve 6,1 puan aldı. Bu film için editör puanı %72 olarak belirlendi. İyi Seyirler!

Teknik Detaylar

Kod :
General
Unique ID                                : 171248404265180387883338979352371083447 (0x80D53E334CF06E2D1E43E8E5121138B7)
Complete name                            : /home/TheSteel/Desktop/2/RoboCop.2014.1080p.BluRay.x264.TR.ENG.Filmbol.mkv
Format                                   : Matroska
Format version                           : Version 4
File size                                : 2.21 GiB
Duration                                 : 1 h 57 min
Overall bit rate                         : 2 695 kb/s
Movie name                               : Robocop - 2014 | Filmbol.org
Encoded date                             : UTC 2021-07-06 21:11:34
Writing application                      : mkvmerge v31.0.0 ('Dolores In A Shoestand') 64-bit
Writing library                          : libebml v1.3.6 + libmatroska v1.4.9

Video
ID                                       : 1
Format                                   : AVC
Format/Info                              : Advanced Video Codec
Format profile                           : [email protected]
Format settings                          : CABAC / 4 Ref Frames
Format settings, CABAC                   : Yes
Format settings, Reference frames        : 4 frames
Codec ID                                 : V_MPEG4/ISO/AVC
Duration                                 : 1 h 57 min
Bit rate                                 : 2 151 kb/s
Width                                    : 1 920 pixels
Height                                   : 800 pixels
Display aspect ratio                     : 2.40:1
Frame rate mode                          : Constant
Frame rate                               : 23.976 (24000/1001) FPS
Original frame rate                      : 23.976 (23976/1000) FPS
Color space                              : YUV
Chroma subsampling                       : 4:2:0
Bit depth                                : 8 bits
Scan type                                : Progressive
Bits/(Pixel*Frame)                       : 0.058
Stream size                              : 1.76 GiB (80%)
Title                                    : 1080P - Filmbol.org
Writing library                          : x264 core 142 r2409 d6b4e63
Encoding settings                        : cabac=1 / ref=4 / deblock=1:-1:-1 / analyse=0x3:0x133 / me=umh / subme=9 / psy=1 / psy_rd=1.00:0.15 / mixed_ref=1 / me_range=24 / chroma_me=1 / trellis=2 / 8x8dct=1 / cqm=0 / deadzone=21,11 / fast_pskip=0 / chroma_qp_offset=-3 / threads=48 / lookahead_threads=4 / sliced_threads=0 / nr=0 / decimate=1 / interlaced=0 / bluray_compat=0 / constrained_intra=0 / bframes=3 / b_pyramid=2 / b_adapt=2 / b_bias=0 / direct=3 / weightb=1 / open_gop=0 / weightp=2 / keyint=250 / keyint_min=23 / scenecut=40 / intra_refresh=0 / rc_lookahead=60 / rc=2pass / mbtree=1 / bitrate=2151 / ratetol=1.0 / qcomp=0.60 / qpmin=0 / qpmax=69 / qpstep=4 / cplxblur=20.0 / qblur=0.5 / vbv_maxrate=31250 / vbv_bufsize=31250 / nal_hrd=none / filler=0 / ip_ratio=1.40 / aq=1:1.00
Default                                  : Yes
Forced                                   : No
Color range                              : Limited
Color primaries                          : BT.709
Matrix coefficients                      : BT.709

Audio #1
ID                                       : 2
Format                                   : AC-3
Format/Info                              : Audio Coding 3
Commercial name                          : Dolby Digital
Codec ID                                 : A_AC3
Duration                                 : 1 h 57 min
Bit rate mode                            : Constant
Bit rate                                 : 448 kb/s
Channel(s)                               : 6 channels
Channel layout                           : L R C LFE Ls Rs
Sampling rate                            : 48.0 kHz
Frame rate                               : 31.250 FPS (1536 SPF)
Compression mode                         : Lossy
Stream size                              : 376 MiB (17%)
Title                                    : Türkçe - Filmbol.org
Language                                 : English
Service kind                             : Complete Main
Default                                  : Yes
Forced                                   : No

Audio #2
ID                                       : 3
Format                                   : AAC LC
Format/Info                              : Advanced Audio Codec Low Complexity
Codec ID                                 : A_AAC-2
Duration                                 : 1 h 57 min
Bit rate                                 : 93.7 kb/s
Channel(s)                               : 2 channels
Channel layout                           : L R
Sampling rate                            : 48.0 kHz
Frame rate                               : 46.875 FPS (1024 SPF)
Compression mode                         : Lossy
Stream size                              : 78.7 MiB (3%)
Title                                    : Orjinal Dil - Filmbol.org
Language                                 : English
Default                                  : No
Forced                                   : No

Text
ID                                       : 4
Format                                   : UTF-8
Codec ID                                 : S_TEXT/UTF8
Codec ID/Info                            : UTF-8 Plain Text
Duration                                 : 1 h 49 min
Bit rate                                 : 67 b/s
Count of elements                        : 1247
Stream size                              : 54.0 KiB (0%)
Title                                    : Türkçe - Filmbol.org
Language                                 : English
Default                                  : No
Forced                                   : No

Film Detayları


 Robocop

 Robocop

 Robocop


Film Fragmanı


Film Detayları



Zip Şifresi: filmbol.org Aşağıdaki butona tıklayarak kopyalabilirsiniz.


Uptobox ile indir

1Fichier ile indir

1Fichier'den İndiremiyor musun? Tıklayın!





Filmbol Cloud

Bunun için üzgünüz ancak, bu linke sadece premium üyeler erişebilir.




WWW


Hızlı Menü: