Filmbol Forum Film İndir 720P v Tetikçiler (Looper) - 2012 - TR+ORG - 720P | tt1276104
Bildirimi Kapat
Merhaba , site giderlerini bir nebze olsun karşılamak adına link kısaltma servisleri kullanmaya başladık. İndirme linkleri sizi ouo.io adresinde yönlendirecek, 3 saniye geçtikten sonra Get Link butonuna tıklayarak linke ulaşacaksınız. Premium üyeler bu durumdan etkilenmeyecektir.


Premium Üyelik Al

Tetikçiler (Looper) - 2012 - TR+ORG - 720P | tt1276104
TheSteeL
Tetikçiler (Looper) - 2012 - TR+ORG - 720P | tt1276104
0
61
  • Derecelendirme: 0/5 - 0 oy
  • 1
  • 2
  • 3
  • 4
  • 5
Konuyu Okuyanlar:2 Ziyaretçi
Şuan Online!
Filmin Yayınlanma Tarihi: 2012 
Şuan Online!
TheSteeL Chief Executive Officer
******
CEO


 Tetikçiler



Zaman hızla ilerlemiş, insanlık ilerlemiş ve gelişmiş, teknoloji hat safhaya ulaşmıştır. Yıl tam olarak 2072. Teknolojinin bu kadar hızlı ilerlemesi insanlık için çoğunluğun teknolojiyi kullanabilmesi anlamına gelmiyor. Öyle ki halk'ın birçok kesimi çoğu bu teknolojilerden uzak kalmıştır. Zenginler herşeye sahip olmaya başladığında, devletler bile yavaş yavaş batmaya ve yok olmaya başlamıştır. 2072'de artık insanlık zamanlar arası seyahati bulmuş ve bu konuda kendini geliştirmiştir. Fakat düzgün yerlerde kullanıldığı gibi bunun bir de kötü yanı bulunmaktadır. En kötü yanlarından birisi bu yılda yaşayan insanların ölmesini istedikleri kişiyi geçmişe gönderip, burada öldürmeleridir. Looper isminde 2042 yılında yaşayan bir grup ile iletişime geçen 2072'de ki zenginler, onlara yüksek paralar ödeyerek katil yaparlar. Yapmaları gereken tek şey 2042'ye belirli koordinatlara ölmesini istediği kişileri göndermek ve ücretini ödemektir. 2 taraf içinde karlı olan iş için kimse bir şeyler sorgulamaz. Ancak Joe isminde bir adam Looper görevindeyken ilginç bir olay farkeder. Yeni gönderilen ve ölümü istenilen kişi kendine çok benzemektedir. Araştırıp sonuca vardığında, 2072'den gönderilen ve ölmesi istenen kişinin aslında kendisi olduğunu anlar...

Tetikçiler (2012) (Looper) | tt1276104 Filmi Imdb'den 544000 kişi tarafından oylandı ve 7,4 puan aldı. Bu film için editör puanı %84 olarak belirlendi. İyi Seyirler!

Teknik Detaylar

Kod :
General
Unique ID                                : 219369265411030691776514672675371829095 (0xA508FBD4A31412EF3D17D2F52E234767)
Complete name                            : /home/TheSteel/Desktop/3/Tetikciler.2012.720p.Bluray.x264.TR.ENG.Filmbol.mkv
Format                                  : Matroska
Format version                          : Version 4
File size                                : 963 MiB
Duration                                : 1 h 59 min
Overall bit rate                        : 1 131 kb/s
Movie name                              : Looper - Tetikçiler - 2012 | Filmbol.org
Encoded date                            : UTC 2021-07-07 09:32:31
Writing application                      : mkvmerge v31.0.0 ('Dolores In A Shoestand') 64-bit
Writing library                          : libebml v1.3.6 + libmatroska v1.4.9

Video
ID                                      : 1
Format                                  : AVC
Format/Info                              : Advanced Video Codec
Format profile                          : [email protected]
Format settings                          : CABAC / 5 Ref Frames
Format settings, CABAC                  : Yes
Format settings, Reference frames        : 5 frames
Codec ID                                : V_MPEG4/ISO/AVC
Duration                                : 1 h 58 min
Bit rate                                : 842 kb/s
Width                                    : 1 280 pixels
Height                                  : 544 pixels
Display aspect ratio                    : 2.35:1
Frame rate mode                          : Constant
Frame rate                              : 23.976 (24000/1001) FPS
Color space                              : YUV
Chroma subsampling                      : 4:2:0
Bit depth                                : 8 bits
Scan type                                : Progressive
Bits/(Pixel*Frame)                      : 0.050
Stream size                              : 716 MiB (74%)
Title                                    : 720P - Filmbol.org
Writing library                          : x264 core 125 r2200 999b753
Encoding settings                        : cabac=1 / ref=5 / deblock=1:0:0 / analyse=0x3:0x113 / me=umh / subme=8 / psy=1 / psy_rd=1.00:0.00 / mixed_ref=1 / me_range=16 / chroma_me=1 / trellis=1 / 8x8dct=1 / cqm=0 / deadzone=21,11 / fast_pskip=1 / chroma_qp_offset=-2 / threads=12 / lookahead_threads=2 / sliced_threads=0 / nr=0 / decimate=1 / interlaced=0 / bluray_compat=0 / constrained_intra=0 / bframes=3 / b_pyramid=2 / b_adapt=2 / b_bias=0 / direct=3 / weightb=1 / open_gop=0 / weightp=2 / keyint=240 / keyint_min=23 / scenecut=40 / intra_refresh=0 / rc_lookahead=50 / rc=2pass / mbtree=1 / bitrate=842 / ratetol=1.0 / qcomp=0.60 / qpmin=10 / qpmax=51 / qpstep=4 / cplxblur=20.0 / qblur=0.5 / ip_ratio=1.40 / aq=1:1.00
Default                                  : Yes
Forced                                  : No

Audio #1
ID                                      : 2
Format                                  : AC-3
Format/Info                              : Audio Coding 3
Commercial name                          : Dolby Digital
Codec ID                                : A_AC3
Duration                                : 1 h 58 min
Bit rate mode                            : Constant
Bit rate                                : 192 kb/s
Channel(s)                              : 2 channels
Channel layout                          : L R
Sampling rate                            : 48.0 kHz
Frame rate                              : 31.250 FPS (1536 SPF)
Compression mode                        : Lossy
Delay relative to video                  : 4 s 417 ms
Stream size                              : 163 MiB (17%)
Title                                    : Türkçe - Filmbol.org
Language                                : Turkish
Service kind                            : Complete Main
Default                                  : Yes
Forced                                  : No

Audio #2
ID                                      : 3
Format                                  : AAC LC
Format/Info                              : Advanced Audio Codec Low Complexity
Codec ID                                : A_AAC-2
Duration                                : 1 h 58 min
Bit rate                                : 96.0 kb/s
Channel(s)                              : 2 channels
Channel layout                          : L R
Sampling rate                            : 48.0 kHz
Frame rate                              : 46.875 FPS (1024 SPF)
Compression mode                        : Lossy
Delay relative to video                  : -83 ms
Stream size                              : 81.5 MiB (8%)
Title                                    : Orjinal Dil - Filmbol.org
Default                                  : No
Forced                                  : No

Text
ID                                      : 4
Format                                  : UTF-8
Codec ID                                : S_TEXT/UTF8
Codec ID/Info                            : UTF-8 Plain Text
Duration                                : 1 h 49 min
Bit rate                                : 38 b/s
Count of elements                        : 900
Stream size                              : 30.9 KiB (0%)
Title                                    : Türkçe - Filmbol.org
Language                                : Turkish
Default                                  : No
Forced                                  : No

Film Detayları


 Tetikçiler

 Tetikçiler

 Tetikçiler


Film Fragmanı


Film Detayları



Zip Şifresi: filmbol.org Aşağıdaki butona tıklayarak kopyalabilirsiniz.


Uptobox ile indir

1Fichier ile indir

1Fichier'den İndiremiyor musun? Tıklayın!





Filmbol Cloud

Bunun için üzgünüz ancak, bu linke sadece premium üyeler erişebilir.




WWW


Hızlı Menü: