Filmbol Forum Film İndir FHD - FULL HD v Ayı Paddington 2 (Paddington 2) - 2017 - TR+ORG - FHD - x264 | tt4468740
Bildirimi Kapat
Merhaba , site giderlerini bir nebze olsun karşılamak adına link kısaltma servisleri kullanmaya başladık. İndirme linkleri sizi ouo.io adresinde yönlendirecek, 3 saniye geçtikten sonra Get Link butonuna tıklayarak linke ulaşacaksınız. Premium üyeler bu durumdan etkilenmeyecektir.


Premium Üyelik Al

Ayı Paddington 2 (Paddington 2) - 2017 - TR+ORG - FHD - x264 | tt4468740
BroserBros
Ayı Paddington 2 (Paddington 2) - 2017 - TR+ORG - FHD - x264 | tt4468740
1
19
  • Derecelendirme: 0/5 - 0 oy
  • 1
  • 2
  • 3
  • 4
  • 5
Konuyu Okuyanlar:1 Ziyaretçi
Şuan Online!
Filmin Yayınlanma Tarihi: 2017 
Şuan Online!
BroserBros Kurucu Admin
*******
Admin


 Ayı Paddington 2



Artık Brown ailesi ile yaşamakta olan Paddington yerel halkın da sevilen ve popüler bir üyesi olmuştur. Teyzesi Lucy’nin 100. doğum günü için mükemmel hediyeyi almak adına bir dizi garip iş bulup çalışmaktadır. Nihayet hediyeyi almayı başarır, ancak hediye bir anda çalınır. Paddington hediyeyi çalanı bulmak için elinden gelen her şeyi yapacaktır…

Ayı Paddington 2 (2017) (Paddington 2) | tt4468740 Filmi Imdb'den 70,000 kişi tarafından oylandı ve 7,8 puan aldı. Bu film için editör puanı %74 olarak belirlendi. İyi Seyirler!

Teknik Detaylar

Kod :
General
Unique ID                                : 117357930066144772334035572561628725924 (0x584A50AF2645043633ED11C30A9982A4)
Complete name                            : /home/BroserBros/Desktop/2/Ayı.Paddington.2.2017.FHD.BluRay.x264.TR.ENG.Filmbol.mkv
Format                                   : Matroska
Format version                           : Version 4
File size                                : 3.70 GiB
Duration                                 : 1 h 43 min
Overall bit rate                         : 5 131 kb/s
Movie name                               : Ayı Paddington 2 - Paddington 2 - 2017 | Filmbol.org
Encoded date                             : UTC 2021-07-05 08:47:06
Writing application                      : mkvmerge v53.0.0 ('Fool's Gold') 64-bit
Writing library                          : libebml v1.4.1 + libmatroska v1.6.2
Cover                                    : Yes
Attachments                              : small_cover_land.jpg / cover.jpg / cover_land.jpg / small_cover.jpg

Video
ID                                       : 1
Format                                   : AVC
Format/Info                              : Advanced Video Codec
Format profile                           : [email protected]
Format settings                          : CABAC / 5 Ref Frames
Format settings, CABAC                   : Yes
Format settings, Reference frames        : 5 frames
Codec ID                                 : V_MPEG4/ISO/AVC
Duration                                 : 1 h 43 min
Bit rate                                 : 4 553 kb/s
Width                                    : 1 920 pixels
Height                                   : 802 pixels
Display aspect ratio                     : 2.40:1
Frame rate mode                          : Constant
Frame rate                               : 24.000 FPS
Color space                              : YUV
Chroma subsampling                       : 4:2:0
Bit depth                                : 8 bits
Scan type                                : Progressive
Bits/(Pixel*Frame)                       : 0.123
Stream size                              : 3.29 GiB (89%)
Title                                    : FHD - Filmbol.org
Language                                 : English
Default                                  : Yes
Forced                                   : No
Color range                              : Limited
Color primaries                          : BT.709
Transfer characteristics                 : BT.709
Matrix coefficients                      : BT.709

Audio #1
ID                                       : 2
Format                                   : AC-3
Format/Info                              : Audio Coding 3
Commercial name                          : Dolby Digital
Codec ID                                 : A_AC3
Duration                                 : 1 h 43 min
Bit rate mode                            : Constant
Bit rate                                 : 192 kb/s
Channel(s)                               : 2 channels
Channel layout                           : L R
Sampling rate                            : 48.0 kHz
Frame rate                               : 31.250 FPS (1536 SPF)
Compression mode                         : Lossy
Stream size                              : 142 MiB (4%)
Title                                    : Türkçe - Filmbol.org
Language                                 : Turkish
Service kind                             : Complete Main
Default                                  : Yes
Forced                                   : Yes

Audio #2
ID                                       : 3
Format                                   : AC-3
Format/Info                              : Audio Coding 3
Commercial name                          : Dolby Digital
Codec ID                                 : A_AC3
Duration                                 : 1 h 43 min
Bit rate mode                            : Constant
Bit rate                                 : 384 kb/s
Channel(s)                               : 6 channels
Channel layout                           : L R C LFE Ls Rs
Sampling rate                            : 48.0 kHz
Frame rate                               : 31.250 FPS (1536 SPF)
Compression mode                         : Lossy
Stream size                              : 284 MiB (7%)
Title                                    : Orijinal Dil - Filmbol.org
Language                                 : English
Service kind                             : Complete Main
Default                                  : No
Forced                                   : No

Text
ID                                       : 4
Format                                   : UTF-8
Codec ID                                 : S_TEXT/UTF8
Codec ID/Info                            : UTF-8 Plain Text
Duration                                 : 1 h 39 min
Bit rate                                 : 62 b/s
Count of elements                        : 1591
Stream size                              : 45.4 KiB (0%)
Title                                    : Türkçe - Filmbol.org
Language                                 : Turkish
Default                                  : No
Forced                                   : No

Film Detayları


 Ayı Paddington 2

 Ayı Paddington 2

 Ayı Paddington 2


Film Fragmanı


Film Detayları



Zip Şifresi: filmbol.org Aşağıdaki butona tıklayarak kopyalabilirsiniz.





Filmbol Cloud

Bunun için üzgünüz ancak, bu linke sadece premium üyeler erişebilir.




WWW
Şuan Offine!
Şuan Offine!
kadisehri Yeni Üye
*
Üye
  • Konular0
  • Mesajlar12
  • Rep puanı 0
çok teşekkürler...


Hızlı Menü: