Filmbol Forum Film İndir FHD - FULL HD v Elysium: Yeni Cennet (Elysium) - 2013 - TR+ORG - FHD - x264 | tt1535108
Bildirimi Kapat
Merhaba , site giderlerini bir nebze olsun karşılamak adına link kısaltma servisleri kullanmaya başladık. İndirme linkleri sizi ouo.io adresinde yönlendirecek, 3 saniye geçtikten sonra Get Link butonuna tıklayarak linke ulaşacaksınız. Premium üyeler bu durumdan etkilenmeyecektir.


Premium Üyelik Al

Elysium: Yeni Cennet (Elysium) - 2013 - TR+ORG - FHD - x264 | tt1535108
TheSteeL
Elysium: Yeni Cennet (Elysium) - 2013 - TR+ORG - FHD - x264 | tt1535108
0
23
  • Derecelendirme: 0/5 - 0 oy
  • 1
  • 2
  • 3
  • 4
  • 5
Konuyu Okuyanlar:2 Ziyaretçi
Şuan Online!
Filmin Yayınlanma Tarihi: 2013 
Şuan Online!
TheSteeL Chief Executive Officer
******
CEO


 Elysium: Yeni Cennet




Bilim Kurgu filmlerinin seveceği Elysium: Yeni Cennet filmi başarılı bir konu ile giriş yapıyor. Yıl 2154 ve dünya şimdiden bile tahmin edebileceğimiz üzere tamamen yok olmak üzere. Herhangi bir canlının hayatta kalmasının çok zor hale geldiği bu dünya, insanların yuvası olmaktan sapmıştır. Bu yüzden yüksek teknolojiye sahip insanlar tarafından başka gezegenlere gitme araçları geliştirilmiş ve sonunda dünyadan bile daha iyi bir yaşam vaat eden Elysium adında bir gezegen bulmuşlardır. Bu gezegenin çok avantajı olması rağmen insanlık buraya gitme konusunda çekingendir. Üst seviye yöneticiler tüm insanları oraya götürdüklerinde Elysium'un da aynı şekilde yok olacağını bilirler. Bu yüzden Elysium'a gitmek devlet eliyle yasak hale getirilir. Buraya şimdilik gidebilecek kişiler sadece test görevlileridir. Fakat bu insanlardan bazılarını isyana sürükleyecek ve oraya gitmenin tüm yollarını denemeye başlamaya sürükleyecektir...

Elysium: Yeni Cennet (2013) (Elysium) | tt1535108 Filmi Imdb'den 425000 kişi tarafından oylandı ve 6,6 puan aldı. Bu film için editör puanı %74 olarak belirlendi. İyi Seyirler!

Teknik Detaylar

Kod :
General
Unique ID                                : 241109198097904563253103506678890672888 (0xB563F1444C49FDE43646372FA2DCB2F8)
Complete name                            : /home/TheSteel/Desktop/2/Elysium.Yeni.Cennet.2013.FHD.BluRay.x264.TR.ENG.Filmbol.mkv
Format                                   : Matroska
Format version                           : Version 4
File size                                : 11.3 GiB
Duration                                 : 1 h 49 min
Overall bit rate mode                    : Variable
Overall bit rate                         : 14.8 Mb/s
Movie name                               : Elysium - Elysium: Yeni Cennet - 2013 | Filmbol.org
Encoded date                             : UTC 2021-07-06 12:03:04
Writing application                      : mkvmerge v31.0.0 ('Dolores In A Shoestand') 64-bit
Writing library                          : libebml v1.3.6 + libmatroska v1.4.9

Video
ID                                       : 1
Format                                   : AVC
Format/Info                              : Advanced Video Codec
Format profile                           : [email protected]
Format settings                          : CABAC / 5 Ref Frames
Format settings, CABAC                   : Yes
Format settings, Reference frames        : 5 frames
Codec ID                                 : V_MPEG4/ISO/AVC
Duration                                 : 1 h 49 min
Bit rate                                 : 11.4 Mb/s
Width                                    : 1 920 pixels
Height                                   : 804 pixels
Display aspect ratio                     : 2.40:1
Frame rate mode                          : Constant
Frame rate                               : 23.976 (24000/1001) FPS
Color space                              : YUV
Chroma subsampling                       : 4:2:0
Bit depth                                : 8 bits
Scan type                                : Progressive
Bits/(Pixel*Frame)                       : 0.308
Stream size                              : 8.73 GiB (77%)
Title                                    : FHD - Filmbol.org
Language                                 : English
Default                                  : Yes
Forced                                   : No

Audio #1
ID                                       : 2
Format                                   : AC-3
Format/Info                              : Audio Coding 3
Commercial name                          : Dolby Digital
Codec ID                                 : A_AC3
Duration                                 : 1 h 49 min
Bit rate mode                            : Constant
Bit rate                                 : 640 kb/s
Channel(s)                               : 6 channels
Channel layout                           : L R C LFE Ls Rs
Sampling rate                            : 48.0 kHz
Frame rate                               : 31.250 FPS (1536 SPF)
Compression mode                         : Lossy
Stream size                              : 502 MiB (4%)
Title                                    : Türkçe - Filmbol.org
Language                                 : Turkish
Service kind                             : Complete Main
Default                                  : Yes
Forced                                   : No

Audio #2
ID                                       : 3
Format                                   : DTS XLL
Format/Info                              : Digital Theater Systems
Commercial name                          : DTS-HD Master Audio
Codec ID                                 : A_DTS
Duration                                 : 1 h 49 min
Bit rate mode                            : Variable
Bit rate                                 : 2 775 kb/s
Channel(s)                               : 8 channels
Channel layout                           : C L R LFE Lb Rb Lss Rss
Sampling rate                            : 48.0 kHz
Frame rate                               : 93.750 FPS (512 SPF)
Bit depth                                : 16 bits
Compression mode                         : Lossless
Stream size                              : 2.12 GiB (19%)
Title                                    : Orjinal Dil - Filmbol.org
Language                                 : English
Default                                  : No
Forced                                   : No

Text
ID                                       : 4
Format                                   : UTF-8
Codec ID                                 : S_TEXT/UTF8
Codec ID/Info                            : UTF-8 Plain Text
Duration                                 : 1 h 40 min
Bit rate                                 : 45 b/s
Count of elements                        : 1049
Stream size                              : 33.6 KiB (0%)
Title                                    : Türkçe - Filmbol.org
Language                                 : Turkish
Default                                  : No
Forced                                   : No

Film Detayları


 Elysium: Yeni Cennet

 Elysium: Yeni Cennet

 Elysium: Yeni Cennet


Film Fragmanı


Film Detayları



Zip Şifresi: filmbol.org Aşağıdaki butona tıklayarak kopyalabilirsiniz.





Filmbol Cloud

Bunun için üzgünüz ancak, bu linke sadece premium üyeler erişebilir.




WWW


Hızlı Menü: