Filmbol Forum Film İndir BRRip XviD v Prime Time - 2021 - TR - BRRip XviD | tt11460976
Bildirimi Kapat
Merhaba , site giderlerini bir nebze olsun karşılamak adına link kısaltma servisleri kullanmaya başladık. İndirme linkleri sizi ouo.io adresinde yönlendirecek, 3 saniye geçtikten sonra Get Link butonuna tıklayarak linke ulaşacaksınız. Premium üyeler bu durumdan etkilenmeyecektir.


Premium Üyelik Al

Prime Time - 2021 - TR - BRRip XviD | tt11460976
TheSteeL
Prime Time - 2021 - TR - BRRip XviD | tt11460976
0
32
  • Derecelendirme: 0/5 - 0 oy
  • 1
  • 2
  • 3
  • 4
  • 5
Konuyu Okuyanlar:2 Ziyaretçi
Şuan Online!
Filmin Yayınlanma Tarihi: 2021 
Şuan Online!
TheSteeL Chief Executive Officer
******
CEO


 Prime Time



Sebastian isminde hafif düzeyde psikolojik sorunları olan bir genç, ilginç bir şey yapar. Bir televizyon stüdyosunu basarak oradaki insanları rehin alır. Neden böyle bir şey yaptığı bilinmese de, isteğinin bu stüdyo üzerinden canlı yayın yaparak insanlara bir şeyler anlatmak olduğu anlaşılır. Fakat kapıda duran çok fazla polis, işleri zorlaştırır. Sebastian uzun bir süre isteği yayını yapamadığı için rehineler ile çok fazla vakit geçirir. Aslında temiz kalpli biri olduğunu düşünen rehineler Sebastian'ı desteklemeye başlayacaktır...

Prime Time (2021) | tt11460976 Filmi Imdb'den 1000 kişi tarafından oylandı ve 5,5 puan aldı. Bu film için editör puanı %62 olarak belirlendi. İyi Seyirler!

Teknik Detaylar

Kod :
General
Unique ID                                : 154688155571379989192237977470978999834 (0x745FDAE6E56823E0E520A665EC5FC61A)
Complete name                            : /home/TheSteel/Desktop/2/Prime.Time.2021.HDRip.XViD.TR.Filmbol.avi
Format                                   : Matroska
Format version                           : Version 4
File size                                : 936 MiB
Duration                                 : 1 h 32 min
Overall bit rate                         : 1 420 kb/s
Movie name                               : Prime Time - 2021 | Filmbol.org
Encoded date                             : UTC 2021-07-04 18:21:28
Writing application                      : mkvmerge v31.0.0 ('Dolores In A Shoestand') 64-bit
Writing library                          : libebml v1.3.6 + libmatroska v1.4.9
FileExtension_Invalid                    : mkv mk3d mka mks

Video
ID                                       : 1
Format                                   : MPEG-4 Visual
Format profile                           : Advanced [email protected]
Format settings                          : BVOP2
Format settings, BVOP                    : 2
Format settings, QPel                    : No
Format settings, GMC                     : No warppoints
Format settings, Matrix                  : Default (MPEG)
Muxing mode                              : Packed bitstream
Codec ID                                 : V_MS/VFW/FOURCC / XVID
Codec ID/Hint                            : XviD
Duration                                 : 1 h 32 min
Bit rate                                 : 1 290 kb/s
Width                                    : 720 pixels
Height                                   : 404 pixels
Display aspect ratio                     : 16:9
Frame rate mode                          : Constant
Frame rate                               : 25.000 FPS
Color space                              : YUV
Chroma subsampling                       : 4:2:0
Bit depth                                : 8 bits
Scan type                                : Progressive
Compression mode                         : Lossy
Bits/(Pixel*Frame)                       : 0.177
Stream size                              : 850 MiB (91%)
Title                                    : Prime Time - 2021 | Filmbol.org
Writing library                          : XviD 64
Default                                  : Yes
Forced                                   : No

Audio
ID                                       : 2
Format                                   : MPEG Audio
Format version                           : Version 1
Format profile                           : Layer 3
Format settings                          : Joint stereo / MS Stereo
Codec ID                                 : A_MPEG/L3
Codec ID/Hint                            : MP3
Duration                                 : 1 h 32 min
Bit rate mode                            : Constant
Bit rate                                 : 128 kb/s
Channel(s)                               : 2 channels
Sampling rate                            : 48.0 kHz
Frame rate                               : 41.667 FPS (1152 SPF)
Compression mode                         : Lossy
Stream size                              : 84.4 MiB (9%)
Title                                    : Prime Time - 2021 | Filmbol.org
Default                                  : Yes
Forced                                   : No

Film Detayları


 Prime Time

 Prime Time

 Prime Time


Film Fragmanı


Film Detayları



Zip Şifresi: filmbol.org Aşağıdaki butona tıklayarak kopyalabilirsiniz.



Uptobox ile indir

1Fichier ile indir

1Fichier'den İndiremiyor musun? Tıklayın!





Filmbol Cloud

Bunun için üzgünüz ancak, bu linke sadece premium üyeler erişebilir.




WWW


Hızlı Menü: