Filmbol Forum Film İndir 720P v Korku Sokağı 1. Kısım: 1994 (Fear Street) - 2021 - TR+ORG - 720P | tt6566576
Bildirimi Kapat
Merhaba , site giderlerini bir nebze olsun karşılamak adına link kısaltma servisleri kullanmaya başladık. İndirme linkleri sizi ouo.io adresinde yönlendirecek, 3 saniye geçtikten sonra Get Link butonuna tıklayarak linke ulaşacaksınız. Premium üyeler bu durumdan etkilenmeyecektir.


Premium Üyelik Al

Korku Sokağı 1. Kısım: 1994 (Fear Street) - 2021 - TR+ORG - 720P | tt6566576
TheSteeL
Korku Sokağı 1. Kısım: 1994 (Fear Street) - 2021 - TR+ORG - 720P | tt6566576
0
217
  • Derecelendirme: 0/5 - 0 oy
  • 1
  • 2
  • 3
  • 4
  • 5
Konuyu Okuyanlar:3 Ziyaretçi
Şuan Online!
Filmin Yayınlanma Tarihi: 2021 
Şuan Online!
TheSteeL Chief Executive Officer
******
CEO


 Korku Sokağı 1. Kısım: 1994



Bir grup gezmeyi, eğlenmeyi ve yeni şeyler yapmayı seven genç, yaşadıkları kasabadan memnun bir şekilde hayatlarını sürdürürler. Fakat bu memnuniyet çok uzun sürmez. Çünkü bir süre sonra kasabada sürekli olarak cinayet işlemeye başlar ve bu gençlerin huzuru kaçar. Ölümlerin ardından ne yapacağını bilemeyen gençler, çareyi bu ölümlerin sebebini araştırıp, çözüm bulmakta bulur. Hemen işe koyulurlar fakat derinlere indikçe aslında bu ölümlerin bir lanetle bağlantılı olduğunu, lanetin ise zaten halihazırda tüm kasabaya üzün yıllar önce yayıldığını anlarlar. Bu yüzden çözümü bulamazlar. Fakat bu araştırma işi kendilerine büyük bir sorun açacaktır. Lanet onlarında peşine düştüğünde, yaptığı işlerden pişman olacaktır... Film, Netflix'in üçleme filmler serisinin ilk filmi.

Korku Sokağı 1. Kısım: 1994 (2021) (Fear Street) | tt6566576 Filmi Imdb'den 8000 kişi tarafından oylandı ve 6,3 puan aldı. Bu film için editör puanı %70 olarak belirlendi. İyi Seyirler!

Teknik Detaylar

Kod :
General
Unique ID                                : 322486463624189184013878143868514706214 (0xF29CA239DB8C7C842F1F0A34C095A326)
Complete name                            : /home/TheSteel/Desktop/1/Korku.Sokagi.1.Kisim.94.2021.720p.WEB-DL.x264.TR.ENG.Filmbol.mkv
Format                                   : Matroska
Format version                           : Version 4
File size                                : 1.29 GiB
Duration                                 : 1 h 47 min
Overall bit rate                         : 1 728 kb/s
Movie name                               : Korku Sokağı 1. Kısım: 1994 - Fear Street | Filmbol.org
Encoded date                             : UTC 2021-07-04 17:58:46
Writing application                      : mkvmerge v31.0.0 ('Dolores In A Shoestand') 64-bit
Writing library                          : libebml v1.3.6 + libmatroska v1.4.9

Video
ID                                       : 1
Format                                   : AVC
Format/Info                              : Advanced Video Codec
Format profile                           : [email protected]
Format settings                          : CABAC / 4 Ref Frames
Format settings, CABAC                   : Yes
Format settings, Reference frames        : 4 frames
Codec ID                                 : V_MPEG4/ISO/AVC
Duration                                 : 1 h 47 min
Bit rate                                 : 1 150 kb/s
Width                                    : 1 280 pixels
Height                                   : 534 pixels
Display aspect ratio                     : 2.40:1
Original display aspect ratio            : 2.40:1
Frame rate mode                          : Constant
Frame rate                               : 24.000 FPS
Color space                              : YUV
Chroma subsampling                       : 4:2:0
Bit depth                                : 8 bits
Scan type                                : Progressive
Bits/(Pixel*Frame)                       : 0.070
Stream size                              : 882 MiB (67%)
Title                                    : Korku Sokağı 1. Kısım: 1994 - Fear Street | Filmbol.org
Writing library                          : x264 core 161
Encoding settings                        : cabac=1 / ref=4 / deblock=1:-1:-1 / analyse=0x3:0x133 / me=umh / subme=9 / psy=1 / psy_rd=1.00:0.15 / mixed_ref=1 / me_range=24 / chroma_me=1 / trellis=2 / 8x8dct=1 / cqm=0 / deadzone=21,11 / fast_pskip=0 / chroma_qp_offset=-3 / threads=17 / lookahead_threads=1 / sliced_threads=0 / nr=0 / decimate=1 / interlaced=0 / bluray_compat=0 / constrained_intra=0 / bframes=3 / b_pyramid=2 / b_adapt=2 / b_bias=0 / direct=3 / weightb=1 / open_gop=0 / weightp=2 / keyint=250 / keyint_min=23 / scenecut=40 / intra_refresh=0 / rc_lookahead=60 / rc=2pass / mbtree=1 / bitrate=1150 / ratetol=1.0 / qcomp=0.60 / qpmin=0 / qpmax=69 / qpstep=4 / cplxblur=20.0 / qblur=0.5 / vbv_maxrate=31250 / vbv_bufsize=31250 / nal_hrd=none / filler=0 / ip_ratio=1.40 / aq=1:1.00
Default                                  : Yes
Forced                                   : No

Audio #1
ID                                       : 2
Format                                   : AC-3
Format/Info                              : Audio Coding 3
Commercial name                          : Dolby Digital
Codec ID                                 : A_AC3
Duration                                 : 1 h 47 min
Bit rate mode                            : Constant
Bit rate                                 : 384 kb/s
Channel(s)                               : 6 channels
Channel layout                           : L R C LFE Ls Rs
Sampling rate                            : 48.0 kHz
Frame rate                               : 31.250 FPS (1536 SPF)
Compression mode                         : Lossy
Stream size                              : 295 MiB (22%)
Title                                    : Korku Sokağı 1. Kısım: 1994 - Fear Street | Filmbol.org
Language                                 : Turkish
Service kind                             : Complete Main
Default                                  : Yes
Forced                                   : No

Audio #2
ID                                       : 3
Format                                   : AC-3
Format/Info                              : Audio Coding 3
Commercial name                          : Dolby Digital
Codec ID                                 : A_AC3
Duration                                 : 1 h 47 min
Bit rate mode                            : Constant
Bit rate                                 : 192 kb/s
Channel(s)                               : 2 channels
Channel layout                           : L R
Sampling rate                            : 48.0 kHz
Frame rate                               : 31.250 FPS (1536 SPF)
Compression mode                         : Lossy
Stream size                              : 147 MiB (11%)
Title                                    : Korku Sokağı 1. Kısım: 1994 - Fear Street | Filmbol.org
Language                                 : English
Service kind                             : Complete Main
Default                                  : No
Forced                                   : No

Text #1
ID                                       : 4
Format                                   : UTF-8
Codec ID                                 : S_TEXT/UTF8
Codec ID/Info                            : UTF-8 Plain Text
Duration                                 : 1 h 39 min
Bit rate                                 : 4 b/s
Count of elements                        : 101
Stream size                              : 3.17 KiB (0%)
Title                                    : Korku Sokağı 1. Kısım: 1994 - Fear Street | Filmbol.org
Language                                 : Turkish
Default                                  : Yes
Forced                                   : Yes

Text #2
ID                                       : 5
Format                                   : UTF-8
Codec ID                                 : S_TEXT/UTF8
Codec ID/Info                            : UTF-8 Plain Text
Duration                                 : 1 h 39 min
Bit rate                                 : 45 b/s
Count of elements                        : 1152
Stream size                              : 33.4 KiB (0%)
Title                                    : Korku Sokağı 1. Kısım: 1994 - Fear Street | Filmbol.org
Language                                 : Turkish
Default                                  : No
Forced                                   : No

Film Detayları


 Korku Sokağı 1. Kısım: 1994

 Korku Sokağı 1. Kısım: 1994

 Korku Sokağı 1. Kısım: 1994


Film Fragmanı


Film Detayları



Zip Şifresi: filmbol.org Aşağıdaki butona tıklayarak kopyalabilirsiniz.


Uptobox ile indir

1Fichier ile indir

1Fichier'den İndiremiyor musun? Tıklayın!





Filmbol Cloud

Bunun için üzgünüz ancak, bu linke sadece premium üyeler erişebilir.




WWW


Hızlı Menü: