Filmbol Forum Film İndir FHD - FULL HD v Star Trek Sonsuzluk (Star Trek Beyond) - 2016 - TR+ORG - FHD - x264 | tt2660888
Bildirimi Kapat
Merhaba , site giderlerini bir nebze olsun karşılamak adına link kısaltma servisleri kullanmaya başladık. İndirme linkleri sizi ouo.io adresinde yönlendirecek, 3 saniye geçtikten sonra Get Link butonuna tıklayarak linke ulaşacaksınız. Premium üyeler bu durumdan etkilenmeyecektir.


Premium Üyelik Al

Star Trek Sonsuzluk (Star Trek Beyond) - 2016 - TR+ORG - FHD - x264 | tt2660888
BroserBros
Star Trek Sonsuzluk (Star Trek Beyond) - 2016 - TR+ORG - FHD - x264 | tt2660888
0
18
  • Derecelendirme: 0/5 - 0 oy
  • 1
  • 2
  • 3
  • 4
  • 5
Konuyu Okuyanlar:2 Ziyaretçi
Şuan Online!
Filmin Yayınlanma Tarihi: 2016 
Şuan Online!
BroserBros Kurucu Admin
*******
Admin


 Star Trek Sonsuzluk



Her zamanki gibi Star Trek serisi, bizi uzaya götürüyor ve resmen gözlerimiz açılıyor diyebiliriz. Konu ise şöyle; fazla spoiler vermeden anlatayım; Atılgan gemisiyle diğer serilerden de hatırlayacağınız gibi kaptan ve mürettebatı 5 yıllık bir uzay görevine çıktılar, aslında onlarda ne aradıklarını bilmiyor, kaptan bile. Uzayın sonsuzluğunda kaybolmuş gibiler diyebiliriz. Ancak eğer bir düşman varsa bunu önceden saptamak için ve önlem almak için bunu yapmaları gerekiyor. Neyse bizimkiler görevde iken dünya’ya benzer bir gezegenin yanında duruyorlar, (biraz sarayım spoiler olmasın) tanımlanamayan cisimler görüyorlar, sinyal gönderiyorlar ve geri dönüş yok. Daha sonra aniden hareketlenip atılgana saldırmaya başlayacaklarından kaptan kalkanları devreye sokuyor, ancak düşmanın gemisi çok fazla, hatta arı sürüsü gibiler, atılgan ve mürettebatını mükemmel bir savaş bekliyor olacak.

Star Trek Sonsuzluk (2016) (Star Trek Beyond) | tt2660888 Filmi Imdb'den 250,000 kişi tarafından oylandı ve 7,0 puan aldı. Bu film için editör puanı %81 olarak belirlendi. İyi Seyirler!

Teknik Detaylar

Kod :
General
Unique ID                                : 95056891904992119641913831786627920287 (0x47834A9CBB0E51BD130AC34B902EF19F)
Complete name                            : /home/BroserBros/Desktop/2/Star.Trek.Sonsuzluk.2016.FHD.BluRay.x264.TR.ENG.Filmbol.mkv
Format                                   : Matroska
Format version                           : Version 4
File size                                : 6.82 GiB
Duration                                 : 2 h 2 min
Overall bit rate                         : 7 981 kb/s
Movie name                               : Star Trek: Sonsuzluk - Star Trek: Beyond - 2016 | Filmbol.org
Encoded date                             : UTC 2021-07-03 13:02:58
Writing application                      : mkvmerge v53.0.0 ('Fool's Gold') 64-bit
Writing library                          : libebml v1.4.1 + libmatroska v1.6.2

Video
ID                                       : 1
Format                                   : AVC
Format/Info                              : Advanced Video Codec
Format profile                           : [email protected]
Format settings                          : CABAC / 5 Ref Frames
Format settings, CABAC                   : Yes
Format settings, Reference frames        : 5 frames
Codec ID                                 : V_MPEG4/ISO/AVC
Duration                                 : 2 h 2 min
Bit rate                                 : 6 700 kb/s
Width                                    : 1 920 pixels
Height                                   : 804 pixels
Display aspect ratio                     : 2.40:1
Frame rate mode                          : Constant
Frame rate                               : 23.976 (24000/1001) FPS
Color space                              : YUV
Chroma subsampling                       : 4:2:0
Bit depth                                : 8 bits
Scan type                                : Progressive
Bits/(Pixel*Frame)                       : 0.181
Stream size                              : 5.73 GiB (84%)
Title                                    : FHD - Filmbol.org
Writing library                          : x264 core 157 r2969 d4099dd
Encoding settings                        : cabac=1 / ref=5 / deblock=1:-3:-3 / analyse=0x3:0x133 / me=umh / subme=9 / psy=1 / psy_rd=1.00:0.08 / mixed_ref=1 / me_range=16 / chroma_me=1 / trellis=2 / 8x8dct=1 / cqm=0 / deadzone=21,11 / fast_pskip=0 / chroma_qp_offset=-1 / threads=6 / lookahead_threads=1 / sliced_threads=0 / nr=0 / decimate=0 / interlaced=0 / bluray_compat=0 / constrained_intra=0 / bframes=3 / b_pyramid=2 / b_adapt=2 / b_bias=0 / direct=3 / weightb=1 / open_gop=0 / weightp=2 / keyint=240 / keyint_min=23 / scenecut=44 / intra_refresh=0 / rc_lookahead=40 / rc=2pass / mbtree=1 / bitrate=6700 / ratetol=1.0 / qcomp=0.60 / qpmin=11 / qpmax=51 / qpstep=4 / cplxblur=20.0 / qblur=0.5 / vbv_maxrate=40000 / vbv_bufsize=40000 / nal_hrd=none / filler=0 / ip_ratio=1.20 / aq=3:1.00
Language                                 : English
Default                                  : Yes
Forced                                   : No

Audio #1
ID                                       : 2
Format                                   : AC-3
Format/Info                              : Audio Coding 3
Commercial name                          : Dolby Digital
Codec ID                                 : A_AC3
Duration                                 : 2 h 2 min
Bit rate mode                            : Constant
Bit rate                                 : 640 kb/s
Channel(s)                               : 6 channels
Channel layout                           : L R C LFE Ls Rs
Sampling rate                            : 48.0 kHz
Frame rate                               : 31.250 FPS (1536 SPF)
Compression mode                         : Lossy
Stream size                              : 560 MiB (8%)
Title                                    : Türkçe - Filmbol.org
Language                                 : Turkish
Service kind                             : Complete Main
Default                                  : Yes
Forced                                   : Yes

Audio #2
ID                                       : 3
Format                                   : AC-3
Format/Info                              : Audio Coding 3
Commercial name                          : Dolby Digital
Codec ID                                 : A_AC3
Duration                                 : 2 h 2 min
Bit rate mode                            : Constant
Bit rate                                 : 640 kb/s
Channel(s)                               : 6 channels
Channel layout                           : L R C LFE Ls Rs
Sampling rate                            : 48.0 kHz
Frame rate                               : 31.250 FPS (1536 SPF)
Compression mode                         : Lossy
Stream size                              : 560 MiB (8%)
Title                                    : Orijinal Dil - Filmbol.org
Language                                 : English
Service kind                             : Complete Main
Default                                  : No
Forced                                   : No

Text
ID                                       : 4
Format                                   : UTF-8
Codec ID                                 : S_TEXT/UTF8
Codec ID/Info                            : UTF-8 Plain Text
Duration                                 : 1 h 52 min
Bit rate                                 : 56 b/s
Count of elements                        : 1140
Stream size                              : 46.2 KiB (0%)
Title                                    : Türkçe - Filmbol.org
Language                                 : Turkish
Default                                  : Yes
Forced                                   : No

Film Detayları


 Star Trek Sonsuzluk

 Star Trek Sonsuzluk

 Star Trek Sonsuzluk


Film Fragmanı


Film Detayları



Zip Şifresi: filmbol.org Aşağıdaki butona tıklayarak kopyalabilirsiniz.





Filmbol Cloud

Bunun için üzgünüz ancak, bu linke sadece premium üyeler erişebilir.




WWW


Hızlı Menü: