Filmbol Forum Film İndir FHD - FULL HD v Ejderhanı Nasıl Eğitirsin 3: Gizli Dünya (How to Train Your Dragon: The Hidden World) - 2019 - TR+ORG - FHD - x264 | tt2386490
Bildirimi Kapat
Merhaba , site giderlerini bir nebze olsun karşılamak adına link kısaltma servisleri kullanmaya başladık. İndirme linkleri sizi ouo.io adresinde yönlendirecek, 3 saniye geçtikten sonra Get Link butonuna tıklayarak linke ulaşacaksınız. Premium üyeler bu durumdan etkilenmeyecektir.


Premium Üyelik Al

Ejderhanı Nasıl Eğitirsin 3: Gizli Dünya (How to Train Your Dragon: The Hidden World) - 2019 - TR+ORG - FHD - x264 | tt2386490
BroserBros
Ejderhanı Nasıl Eğitirsin 3: Gizli Dünya (How to Train Your Dragon: The Hidden World) - 2019 - TR+ORG - FHD - x264 | tt2386490
0
22
  • Derecelendirme: 0/5 - 0 oy
  • 1
  • 2
  • 3
  • 4
  • 5
Konuyu Okuyanlar:2 Ziyaretçi
Şuan Online!
Filmin Yayınlanma Tarihi: 2019 
Şuan Online!
BroserBros Kurucu Admin
*******
Admin


 Ejderhanı Nasıl Eğitirsin 3: Gizli Dünya



Grimmel, bir ejdarha avcısıdır ve yüzlerce gece öfkesi avlamıştır. Yeni bir gece öfkesi olduğunu öğrendiğin de ava çıkar. Ancak gece öfkesi bir değil iki tanedir ve Hiccup’un bu durumdan kurtulmasının tek yolu Gizli Dünya’yı keşfetmektir.

Ejderhanı Nasıl Eğitirsin 3: Gizli Dünya (2019) (How to Train Your Dragon: The Hidden World) | tt2386490 Filmi Imdb'den 120,000 kişi tarafından oylandı ve 7,5 puan aldı. Bu film için editör puanı %86 olarak belirlendi. İyi Seyirler!

Teknik Detaylar

Kod :
General
Unique ID                                : 320845121963588117217121378788377944706 (0xF16085D5912BB13B28AC61B9D36CE282)
Complete name                            : /home/BroserBros/Desktop/1/Ejderhanı.Nasıl.Eğitirsin.Gizli.Dünya.2019.FHD.BluRay.x264.TR.ENG.Filmbol.mkv
Format                                   : Matroska
Format version                           : Version 4
File size                                : 4.04 GiB
Duration                                 : 1 h 44 min
Overall bit rate                         : 5 544 kb/s
Movie name                               : Ejderhanı Nasıl Eğitirsin: Gizli Dünya - How To Train Your Dragon: Hidden World - 2019 | Filmbol.org
Encoded date                             : UTC 2021-07-03 10:26:14
Writing application                      : mkvmerge v53.0.0 ('Fool's Gold') 64-bit
Writing library                          : libebml v1.4.1 + libmatroska v1.6.2
Cover                                    : Yes
Attachments                              : cover_land.jpg / small_cover.jpg / small_cover_land.jpg / cover.jpg

Video
ID                                       : 1
Format                                   : AVC
Format/Info                              : Advanced Video Codec
Format profile                           : [email protected]
Format settings                          : CABAC / 5 Ref Frames
Format settings, CABAC                   : Yes
Format settings, Reference frames        : 5 frames
Codec ID                                 : V_MPEG4/ISO/AVC
Duration                                 : 1 h 44 min
Bit rate                                 : 4 521 kb/s
Width                                    : 1 920 pixels
Height                                   : 816 pixels
Display aspect ratio                     : 2.35:1
Frame rate mode                          : Constant
Frame rate                               : 23.976 FPS
Color space                              : YUV
Chroma subsampling                       : 4:2:0
Bit depth                                : 8 bits
Scan type                                : Progressive
Bits/(Pixel*Frame)                       : 0.120
Stream size                              : 3.30 GiB (82%)
Title                                    : FHD - Filmbol.org
Language                                 : English
Default                                  : Yes
Forced                                   : No
Color range                              : Limited
Color primaries                          : BT.709
Transfer characteristics                 : BT.709
Matrix coefficients                      : BT.709

Audio #1
ID                                       : 2
Format                                   : E-AC-3
Format/Info                              : Enhanced AC-3
Commercial name                          : Dolby Digital Plus
Codec ID                                 : A_EAC3
Duration                                 : 1 h 44 min
Bit rate mode                            : Constant
Bit rate                                 : 640 kb/s
Channel(s)                               : 6 channels
Channel layout                           : L R C LFE Ls Rs
Sampling rate                            : 48.0 kHz
Frame rate                               : 31.250 FPS (1536 SPF)
Compression mode                         : Lossy
Delay relative to video                  : 1 s 0 ms
Stream size                              : 477 MiB (12%)
Title                                    : Türkçe - Filmbol.org
Language                                 : Turkish
Service kind                             : Complete Main
Default                                  : Yes
Forced                                   : Yes

Audio #2
ID                                       : 3
Format                                   : AC-3
Format/Info                              : Audio Coding 3
Commercial name                          : Dolby Digital
Codec ID                                 : A_AC3
Duration                                 : 1 h 44 min
Bit rate mode                            : Constant
Bit rate                                 : 384 kb/s
Channel(s)                               : 6 channels
Channel layout                           : L R C LFE Ls Rs
Sampling rate                            : 48.0 kHz
Frame rate                               : 31.250 FPS (1536 SPF)
Compression mode                         : Lossy
Stream size                              : 286 MiB (7%)
Title                                    : Orijinal Dil - Filmbol.org
Language                                 : English
Service kind                             : Complete Main
Default                                  : No
Forced                                   : No

Text
ID                                       : 4
Format                                   : UTF-8
Codec ID                                 : S_TEXT/UTF8
Codec ID/Info                            : UTF-8 Plain Text
Duration                                 : 1 h 32 min
Bit rate                                 : 48 b/s
Count of elements                        : 1051
Stream size                              : 33.0 KiB (0%)
Title                                    : Türkçe - Filmbol.org
Language                                 : Turkish
Default                                  : No
Forced                                   : No

Film Detayları


 Ejderhanı Nasıl Eğitirsin 3: Gizli Dünya

 Ejderhanı Nasıl Eğitirsin 3: Gizli Dünya

 Ejderhanı Nasıl Eğitirsin 3: Gizli Dünya


Film Fragmanı


Film Detayları



Zip Şifresi: filmbol.org Aşağıdaki butona tıklayarak kopyalabilirsiniz.





Filmbol Cloud

Bunun için üzgünüz ancak, bu linke sadece premium üyeler erişebilir.




WWW


Hızlı Menü: