Filmbol Forum Film İndir FHD - FULL HD v Bilinmeze Doğru: Star Trek (Star Trek Into Darkness) - 2013 - TR+ORG - FHD - x264 | tt1408101
Bildirimi Kapat
Merhaba , site giderlerini bir nebze olsun karşılamak adına link kısaltma servisleri kullanmaya başladık. İndirme linkleri sizi ouo.io adresinde yönlendirecek, 3 saniye geçtikten sonra Get Link butonuna tıklayarak linke ulaşacaksınız. Premium üyeler bu durumdan etkilenmeyecektir.


Premium Üyelik Al

Bilinmeze Doğru: Star Trek (Star Trek Into Darkness) - 2013 - TR+ORG - FHD - x264 | tt1408101
TheSteeL
Bilinmeze Doğru: Star Trek (Star Trek Into Darkness) - 2013 - TR+ORG - FHD - x264 | tt1408101
2
32
  • Derecelendirme: 0/5 - 0 oy
  • 1
  • 2
  • 3
  • 4
  • 5
Konuyu Okuyanlar:3 Ziyaretçi
Şuan Online!
Filmin Yayınlanma Tarihi: 2013 
Şuan Online!
TheSteeL Chief Executive Officer
******
CEO


 Bilinmeze Doğru: Star Trek



Serinin ikinci filminde, yine kullanıcıya başarılı bir şekilde seyir zevki sunabilen Star Trek filmi, Atılgan ve mürettebat'ının dışarıda ki görevlerini başarı ile bitirmesinin ardından, hızlı bir şekilde dünyaya çağrıldığı zamana odaklanıyor. Mürettebat ne olduğunu anlamaz ancak çağrı üzerine hızlı bir şekilde dünyaya döner. Karşılaştıkları manzara, bekledikleri manzaradan çok farklı olur. Dünya büyük bir terör saldırısının ardından fena bir şekilde harap olmuş ve yok olmak üzeredir. Atılgan ve mürettebat'ının yeni görevi bellidir. Dünyayı kurtarmak...

Bilinmeze Doğru: Star Trek (2013) (Star Trek Into Darkness) | tt1408101 Filmi Imdb'den 468000 kişi tarafından oylandı ve 7,7 puan aldı. Bu film için editör puanı %87 olarak belirlendi. İyi Seyirler!

Teknik Detaylar

Kod :
General
Unique ID                                : 93878044301756128765851214417551583603 (0x46A040F021D6E76155BCD7867BAE6973)
Complete name                            : /home/TheSteel/Desktop/1/Bilinmeze.Dogru.Star.Trek.2013.FHD.Bluray.x264.TR.ENG.Filmbol.mkv
Format                                   : Matroska
Format version                           : Version 4
File size                                : 7.92 GiB
Duration                                 : 2 h 12 min
Overall bit rate                         : 8 585 kb/s
Movie name                               : Star Trek Into Darkness - Bilinmeze Doğru: Star Trek - 2013 | Filmbol.org
Encoded date                             : UTC 2021-07-01 22:29:43
Writing application                      : mkvmerge v31.0.0 ('Dolores In A Shoestand') 64-bit
Writing library                          : libebml v1.3.6 + libmatroska v1.4.9

Video
ID                                       : 1
Format                                   : AVC
Format/Info                              : Advanced Video Codec
Format profile                           : [email protected]
Format settings                          : CABAC / 5 Ref Frames
Format settings, CABAC                   : Yes
Format settings, Reference frames        : 5 frames
Codec ID                                 : V_MPEG4/ISO/AVC
Duration                                 : 2 h 12 min
Bit rate                                 : 6 434 kb/s
Width                                    : 1 920 pixels
Height                                   : 800 pixels
Display aspect ratio                     : 2.40:1
Frame rate mode                          : Constant
Frame rate                               : 23.976 (24000/1001) FPS
Color space                              : YUV
Chroma subsampling                       : 4:2:0
Bit depth                                : 8 bits
Scan type                                : Progressive
Bits/(Pixel*Frame)                       : 0.175
Stream size                              : 5.94 GiB (75%)
Title                                    : FHD - Filmbol.org
Writing library                          : x264 core 157 r2969 d4099dd
Encoding settings                        : cabac=1 / ref=5 / deblock=1:-3:-3 / analyse=0x3:0x133 / me=umh / subme=9 / psy=1 / psy_rd=1.00:0.08 / mixed_ref=1 / me_range=16 / chroma_me=1 / trellis=2 / 8x8dct=1 / cqm=0 / deadzone=21,11 / fast_pskip=0 / chroma_qp_offset=-1 / threads=6 / lookahead_threads=1 / sliced_threads=0 / nr=0 / decimate=0 / interlaced=0 / bluray_compat=0 / constrained_intra=0 / bframes=3 / b_pyramid=2 / b_adapt=2 / b_bias=0 / direct=3 / weightb=1 / open_gop=0 / weightp=2 / keyint=240 / keyint_min=23 / scenecut=44 / intra_refresh=0 / rc_lookahead=40 / rc=2pass / mbtree=1 / bitrate=6434 / ratetol=1.0 / qcomp=0.60 / qpmin=11 / qpmax=51 / qpstep=4 / cplxblur=20.0 / qblur=0.5 / vbv_maxrate=40000 / vbv_bufsize=40000 / nal_hrd=none / filler=0 / ip_ratio=1.20 / aq=3:1.00
Language                                 : English
Default                                  : Yes
Forced                                   : No

Audio #1
ID                                       : 2
Format                                   : AC-3
Format/Info                              : Audio Coding 3
Commercial name                          : Dolby Digital
Codec ID                                 : A_AC3
Duration                                 : 2 h 12 min
Bit rate mode                            : Constant
Bit rate                                 : 640 kb/s
Channel(s)                               : 6 channels
Channel layout                           : L R C LFE Ls Rs
Sampling rate                            : 48.0 kHz
Frame rate                               : 31.250 FPS (1536 SPF)
Compression mode                         : Lossy
Stream size                              : 605 MiB (7%)
Title                                    : Türkçe - Filmbol.org
Language                                 : Turkish
Service kind                             : Complete Main
Default                                  : Yes
Forced                                   : No

Audio #2
ID                                       : 3
Format                                   : DTS
Format/Info                              : Digital Theater Systems
Codec ID                                 : A_DTS
Duration                                 : 2 h 12 min
Bit rate mode                            : Constant
Bit rate                                 : 1 510 kb/s
Channel(s)                               : 6 channels
Channel layout                           : C L R Ls Rs LFE
Sampling rate                            : 48.0 kHz
Frame rate                               : 93.750 FPS (512 SPF)
Bit depth                                : 24 bits
Compression mode                         : Lossy
Stream size                              : 1.39 GiB (18%)
Title                                    : Orjinal Dil - Filmbol.org
Language                                 : English
Default                                  : No
Forced                                   : No

Text
ID                                       : 4
Format                                   : UTF-8
Codec ID                                 : S_TEXT/UTF8
Codec ID/Info                            : UTF-8 Plain Text
Duration                                 : 2 h 2 min
Bit rate                                 : 67 b/s
Count of elements                        : 1390
Stream size                              : 60.8 KiB (0%)
Title                                    : Türkçe - Filmbol.org
Language                                 : Turkish
Default                                  : No
Forced                                   : No

Film Detayları


 Bilinmeze Doğru: Star Trek

 Bilinmeze Doğru: Star Trek

 Bilinmeze Doğru: Star Trek


Film Fragmanı


Film Detayları



Zip Şifresi: filmbol.org Aşağıdaki butona tıklayarak kopyalabilirsiniz.





Filmbol Cloud

Bunun için üzgünüz ancak, bu linke sadece premium üyeler erişebilir.




WWW
Şuan Offine!
Şuan Offine!
glmlj1 Yeni Üye
*
Üye
  • Konular0
  • Mesajlar1
  • Rep puanı 0
izlemek istiyorum
Şuan Online!
Şuan Online!
Tuva Yeni Üye
*
Üye
  • Konular0
  • Mesajlar40
  • Rep puanı 0
Teşekkür Ederim


Hızlı Menü: