Filmbol Forum Film İndir BRRip XviD v Manhattan Gecesi (Manhattan Night (Nocturne)) - 2016 - TR - BRRip XviD | tt3100274
Mega linklerinin şikayet edilmemesi için global erişime kapatıp sadece yorum yapanlara açıyoruz. Bu linkleri gizleme işlemini mecburen yapıyoruz ve yorum yapmanızın siteye değil size faydası vardır. Teşekürler yazmayı çok görüp, Random/Spam mesajlar atarak Mega linklerini açmaya çalışan kullanıcılara önce süresiz ban, devam ederse IP ban atacağız.
Filmbol'da moderatör olmak ister misiniz? Bizimle iletişime geçmek için tıklayın!
Manhattan Gecesi (Manhattan Night (Nocturne)) - 2016 - TR - BRRip XviD | tt3100274
BroserBros
Manhattan Gecesi (Manhattan Night (Nocturne)) - 2016 - TR - BRRip XviD | tt3100274
2
1228
  • Derecelendirme: 0/5 - 0 oy
  • 1
  • 2
  • 3
  • 4
  • 5
Konuyu Okuyanlar:1 Ziyaretçi
Şuan Online!
Filmin Yayınlanma Tarihi: 2016 
WWW
Şuan Online!
BroserBros Kurucu Admin
*******
Admin



 Manhattan Gecesi



Porter Wren (Adrien Brody) New York’un önemli bir gazetesinde çok okunan mahkeme ve cinayet yazıları çıkaran bir gazetecidir. Aynı zamanda ailesine bağlı bir adamdır. Ancak bir davette tanıştığı Caroline Crowley (Yvonne Strahovski) hayatını değiştirecektir. Ünlü bir yönetmen olan kocası Simon’ı kısa süre önce gizemli bir cinayete kurban veren güzel kadın, Porter’ı baştan çıkararak ondan bu davayı çözmesini ister. Bundan sonrasında türlü kirli ilişkiyle örülü karmaşık bir olaylar zinciri, Porter’ı rahat bırakmayacaktır.
Film, Colin Harrison’ın çok satan 1996 tarihli Manhattan Nocturne adlı romandan uyarlandı.

Manhattan Gecesi (2016) (Manhattan Night (Nocturne)) | tt3100274 Filmi Imdb'den 12,000 kişi tarafından oylandı ve 6,2 puan aldı. Bu film için editör puanı %60 olarak belirlendi. İyi Seyirler!

Teknik Detaylar

Kod :
General
Unique ID                                : 310060329721131017816176260055160906328 (0xE943728607EEE34B1D52D9467A54E258)
Complete name                            : /home/BroserBros/Desktop/1/Manhattan.Gecesi.2016.BRRip.XviD.TR.Filmbol.avi
Format                                   : Matroska
Format version                           : Version 4
File size                                : 1.18 GiB
Duration                                 : 1 h 53 min
Overall bit rate                         : 1 481 kb/s
Movie name                               : Manhattan Gecesi - Manhattan Night - 2016 | Filmbol.org
Encoded date                             : UTC 2021-04-24 14:22:16
Writing application                      : mkvmerge v53.0.0 ('Fool's Gold') 64-bit
Writing library                          : libebml v1.4.1 + libmatroska v1.6.2
FileExtension_Invalid                    : mkv mk3d mka mks

Video
ID                                       : 1
Format                                   : MPEG-4 Visual
Format profile                           : Advanced [email protected]
Format settings                          : BVOP2
Format settings, BVOP                    : 2
Format settings, QPel                    : No
Format settings, GMC                     : No warppoints
Format settings, Matrix                  : Default (H.263)
Muxing mode                              : Packed bitstream
Codec ID                                 : V_MS/VFW/FOURCC / XVID
Codec ID/Hint                            : XviD
Duration                                 : 1 h 53 min
Bit rate                                 : 1 351 kb/s
Width                                    : 720 pixels
Height                                   : 304 pixels
Display aspect ratio                     : 2.35:1
Frame rate mode                          : Constant
Frame rate                               : 23.976 (23976/1000) FPS
Color space                              : YUV
Chroma subsampling                       : 4:2:0
Bit depth                                : 8 bits
Scan type                                : Progressive
Compression mode                         : Lossy
Bits/(Pixel*Frame)                       : 0.257
Stream size                              : 1.08 GiB (91%)
Title                                    : Manhattan Gecesi - Manhattan Night - 2016 | Filmbol.org
Writing library                          : XviD 66
Default                                  : Yes
Forced                                   : No

Audio
ID                                       : 2
Format                                   : MPEG Audio
Format version                           : Version 1
Format profile                           : Layer 3
Format settings                          : Joint stereo / MS Stereo
Codec ID                                 : A_MPEG/L3
Codec ID/Hint                            : MP3
Duration                                 : 1 h 53 min
Bit rate mode                            : Constant
Bit rate                                 : 128 kb/s
Channel(s)                               : 2 channels
Sampling rate                            : 48.0 kHz
Frame rate                               : 41.667 FPS (1152 SPF)
Compression mode                         : Lossy
Stream size                              : 104 MiB (9%)
Title                                    : Manhattan Gecesi - Manhattan Night - 2016 | Filmbol.org
Writing library                          : LAME3.99r
Encoding settings                        : -m j -V 4 -q 2 -lowpass 17 -b 128
Default                                  : Yes
Forced                                   : No

Film Detayları


 Manhattan Gecesi

 Manhattan Gecesi

 Manhattan Gecesi


Film Fragmanı


Film Detayları


Uptobox ile indir

1Fichier ile indir

1Fichier'den İndiremiyor musun? Tıklayın!


Mega linki şuan da gizli. Kullanıma açmak için konuya yorum yapın ve ardından sayfayı yenileyin.

Mega


Bunun için üzgünüz ancak, bu linke sadece premium üyeler erişebilir.

Filmbol Cloud





Şuan Online!
Şuan Online!
BroserBros Kurucu Admin
*******
Admin

27.04.2021 Yönetici Notu:

Kırık linkler kontrol edildi, kaldırıldı ve yenilendi. Tüm linkler tamamen çalışır durumda.
Şuan Online!
Şuan Online!
Furkan61 Süper Üye
***
Super Üye

  • Konular0
  • Mesajlar227
  • Rep puanı 4
teşekkürler


Hızlı Menü: