Filmbol Forum Film İndir 1080P v Uzay Yolu (Star Trek) - 2009 - TR+ORG - 1080P | tt0796366
Bildirimi Kapat
Merhaba , site giderlerini bir nebze olsun karşılamak adına link kısaltma servisleri kullanmaya başladık. İndirme linkleri sizi ouo.io adresinde yönlendirecek, 3 saniye geçtikten sonra Get Link butonuna tıklayarak linke ulaşacaksınız. Premium üyeler bu durumdan etkilenmeyecektir.


Premium Üyelik Al

Uzay Yolu (Star Trek) - 2009 - TR+ORG - 1080P | tt0796366
TheSteeL
Uzay Yolu (Star Trek) - 2009 - TR+ORG - 1080P | tt0796366
2
66
  • Derecelendirme: 0/5 - 0 oy
  • 1
  • 2
  • 3
  • 4
  • 5
Konuyu Okuyanlar:1 Ziyaretçi
Şuan Online!
Filmin Yayınlanma Tarihi: 2009 
Şuan Online!
TheSteeL Chief Executive Officer
******
CEO


 Uzay Yolu



Star Trek isimli sevilen serinin sevilen karakterlerinin geçmişine giden filmde, Atılgan ve ekibinin gençlik yıllarına gidiliyor. Burada çok büyük bir sorun yaşanır ve evren bazı açgözlü kişiler tarafından büyük bir riske atılmıştır. Evren yok olmak üzereyken, bu yok olmaya karşı olan kişiler ise şüphesiz ki Atılgan ve ekibi olacaktır. Ancak karşıdaki kişiler Atılgan'a karşı hem tecrübeli hemde daha güçlü olduğundan, Atılgan farklı bir yol izlemelidir...

Uzay Yolu (2009) | tt0796366 Filmi Imdb'den 583000 kişi tarafından oylandı ve 7,9 puan aldı. Bu film için editör puanı %93 olarak belirlendi. İyi Seyirler!

Teknik Detaylar

Kod :
General
Unique ID                                : 19345988441124955795342729090370205213 (0xE8DE6DF43D588AE41C31E17AC21761D)
Complete name                            : /home/TheSteel/Desktop/2/Star.Trek.2009.1080p.Bluray.x264.TR.ENG.Filmbol.mkv
Format                                   : Matroska
Format version                           : Version 4
File size                                : 2.06 GiB
Duration                                 : 2 h 6 min
Overall bit rate                         : 2 330 kb/s
Movie name                               : Star Trek - 2009 | Filmbol.org
Encoded date                             : UTC 2021-07-01 11:30:58
Writing application                      : mkvmerge v31.0.0 ('Dolores In A Shoestand') 64-bit
Writing library                          : libebml v1.3.6 + libmatroska v1.4.9

Video
ID                                       : 1
Format                                   : AVC
Format/Info                              : Advanced Video Codec
Format profile                           : [email protected]
Format settings                          : CABAC / 4 Ref Frames
Format settings, CABAC                   : Yes
Format settings, Reference frames        : 4 frames
Codec ID                                 : V_MPEG4/ISO/AVC
Duration                                 : 2 h 6 min
Bit rate                                 : 1 596 kb/s
Width                                    : 1 920 pixels
Height                                   : 800 pixels
Display aspect ratio                     : 2.40:1
Frame rate mode                          : Constant
Frame rate                               : 23.976 (24000/1001) FPS
Color space                              : YUV
Chroma subsampling                       : 4:2:0
Bit depth                                : 8 bits
Scan type                                : Progressive
Bits/(Pixel*Frame)                       : 0.043
Stream size                              : 1.41 GiB (68%)
Title                                    : 1080P - Filmbol.org
Writing library                          : x264 core 120 r2164 da19765
Encoding settings                        : cabac=1 / ref=3 / deblock=1:-2:-1 / analyse=0x3:0x133 / me=umh / subme=9 / psy=1 / psy_rd=1.00:0.00 / mixed_ref=1 / me_range=16 / chroma_me=1 / trellis=2 / 8x8dct=1 / cqm=0 / deadzone=21,11 / fast_pskip=1 / chroma_qp_offset=-2 / threads=12 / sliced_threads=0 / nr=0 / decimate=1 / interlaced=0 / bluray_compat=0 / constrained_intra=0 / bframes=3 / b_pyramid=2 / b_adapt=1 / b_bias=0 / direct=3 / weightb=1 / open_gop=0 / weightp=2 / keyint=240 / keyint_min=23 / scenecut=40 / intra_refresh=0 / rc_lookahead=60 / rc=2pass / mbtree=1 / bitrate=1596 / ratetol=1.0 / qcomp=0.60 / qpmin=10 / qpmax=51 / qpstep=4 / cplxblur=20.0 / qblur=0.5 / ip_ratio=1.40 / aq=1:1.00
Default                                  : Yes
Forced                                   : No

Audio #1
ID                                       : 2
Format                                   : AC-3
Format/Info                              : Audio Coding 3
Commercial name                          : Dolby Digital
Codec ID                                 : A_AC3
Duration                                 : 2 h 6 min
Bit rate mode                            : Constant
Bit rate                                 : 640 kb/s
Channel(s)                               : 6 channels
Channel layout                           : L R C LFE Ls Rs
Sampling rate                            : 48.0 kHz
Frame rate                               : 31.250 FPS (1536 SPF)
Compression mode                         : Lossy
Stream size                              : 581 MiB (27%)
Title                                    : Türkçe - Filmbol.org
Language                                 : Turkish
Service kind                             : Complete Main
Default                                  : Yes
Forced                                   : No

Audio #2
ID                                       : 3
Format                                   : AAC LC
Format/Info                              : Advanced Audio Codec Low Complexity
Codec ID                                 : A_AAC-2
Duration                                 : 2 h 6 min
Bit rate                                 : 92.0 kb/s
Channel(s)                               : 2 channels
Channel layout                           : L R
Sampling rate                            : 48.0 kHz
Frame rate                               : 46.875 FPS (1024 SPF)
Compression mode                         : Lossy
Stream size                              : 83.5 MiB (4%)
Title                                    : Orjinal Dil - Filmbol.org
Language                                 : English
Default                                  : No
Forced                                   : No

Text
ID                                       : 4
Format                                   : UTF-8
Codec ID                                 : S_TEXT/UTF8
Codec ID/Info                            : UTF-8 Plain Text
Duration                                 : 2 h 5 min
Bit rate                                 : 53 b/s
Count of elements                        : 1271
Stream size                              : 48.9 KiB (0%)
Title                                    : Türkçe - Filmbol.org
Language                                 : Turkish
Default                                  : No
Forced                                   : No

Film Detayları


 Uzay Yolu

 Uzay Yolu

 Uzay Yolu


Film Fragmanı


Film Detayları



Zip Şifresi: filmbol.org Aşağıdaki butona tıklayarak kopyalabilirsiniz.


Uptobox ile indir

1Fichier ile indir

1Fichier'den İndiremiyor musun? Tıklayın!





Filmbol Cloud

Bunun için üzgünüz ancak, bu linke sadece premium üyeler erişebilir.




WWW
Şuan Offine!
Şuan Offine!
CanerYavuz Uzman Üye
**
Uzman Üye
  • Konular0
  • Mesajlar7
  • Rep puanı 0
Kral adamsın admin, ellerine sağlık..
Şuan Online!
Şuan Online!
TheSteeL Chief Executive Officer
******
CEO
(02-07-2021, Saat: 14:57)CanerYavuz Adlı Kullanıcıdan Alıntı: Kral adamsın admin, ellerine sağlık..
İyi Seyirler


Hızlı Menü: