Filmbol Forum Film İndir BRRip XviD v Yaşamın Kıyısında (Manchester by the Sea) - 2016 - TR - BRRip XviD | tt4034228
Bildirimi Kapat
Merhaba , site giderlerini bir nebze olsun karşılamak adına link kısaltma servisleri kullanmaya başladık. İndirme linkleri sizi ouo.io adresinde yönlendirecek, 3 saniye geçtikten sonra Get Link butonuna tıklayarak linke ulaşacaksınız. Premium üyeler bu durumdan etkilenmeyecektir.


Premium Üyelik Al

Yaşamın Kıyısında (Manchester by the Sea) - 2016 - TR - BRRip XviD | tt4034228
TheSteeL
Yaşamın Kıyısında (Manchester by the Sea) - 2016 - TR - BRRip XviD | tt4034228
0
36
  • Derecelendirme: 0/5 - 0 oy
  • 1
  • 2
  • 3
  • 4
  • 5
Konuyu Okuyanlar:3 Ziyaretçi
Şuan Online!
Filmin Yayınlanma Tarihi: 2016 
Şuan Online!
TheSteeL Chief Executive Officer
******
CEO


 Yaşamın Kıyısında



Lee, sıradan bir hayat beklentisi olan ve sadece geçimini sağlayacak kadar çalışan normal bir insandır. Onun beklentisi sadece mutluca bir hayat sürebilmektir. Fakat işler beklediği gibi gitmez. Kalp hastası abisi hastalığında hemen hastaneye yola çıkar. Büyük bir tereddüt ve korku ile hastaneye ilerleyen Lee, aldığı haber ile hayatını birden bire değiştirecektir...

Yaşamın Kıyısında (2016) (Manchester by the Sea) | tt4034228 Filmi Imdb'den 256000 kişi tarafından oylandı ve 7,8 puan aldı. Bu film için editör puanı %87 olarak belirlendi. İyi Seyirler!

Teknik Detaylar

Kod :
General
Complete name                            : /home/TheSteel/Desktop/1/Yasamin.Kiyisinda.2016.BRRip.Xvid.TR.Filmbol.avi
Format                                   : AVI
Format/Info                              : Audio Video Interleave
File size                                : 823 MiB
Duration                                 : 2 h 17 min
Overall bit rate                         : 836 kb/s

Video
ID                                       : 0
Format                                   : MPEG-4 Visual
Format profile                           : Advanced [email protected]
Format settings                          : BVOP2
Format settings, BVOP                    : 2
Format settings, QPel                    : No
Format settings, GMC                     : No warppoints
Format settings, Matrix                  : Default (H.263)
Codec ID                                 : DIVX
Codec ID/Info                            : Project Mayo
Codec ID/Hint                            : DivX 4
Duration                                 : 2 h 17 min
Bit rate                                 : 631 kb/s
Width                                    : 600 pixels
Height                                   : 320 pixels
Display aspect ratio                     : 1.85:1
Frame rate                               : 23.976 (24000/1001) FPS
Color space                              : YUV
Chroma subsampling                       : 4:2:0
Bit depth                                : 8 bits
Scan type                                : Progressive
Compression mode                         : Lossy
Bits/(Pixel*Frame)                       : 0.137
Stream size                              : 621 MiB (75%)
Writing library                          : XviD 67

Audio
ID                                       : 1
Format                                   : MPEG Audio
Format version                           : Version 1
Format profile                           : Layer 3
Codec ID                                 : 55
Codec ID/Hint                            : MP3
Duration                                 : 2 h 17 min
Bit rate mode                            : Constant
Bit rate                                 : 192 kb/s
Channel(s)                               : 2 channels
Sampling rate                            : 48.0 kHz
Compression mode                         : Lossy
Stream size                              : 189 MiB (23%)
Alignment                                : Aligned on interleaves
Interleave, duration                     : 24  ms (0.58 video frame)
Writing library                          : LAME3.100

Film Detayları


 Yaşamın Kıyısında

 Yaşamın Kıyısında

 Yaşamın Kıyısında


Film Fragmanı


Film Detayları



Zip Şifresi: filmbol.org Aşağıdaki butona tıklayarak kopyalabilirsiniz.



Uptobox ile indir

1Fichier ile indir

1Fichier'den İndiremiyor musun? Tıklayın!





Filmbol Cloud

Bunun için üzgünüz ancak, bu linke sadece premium üyeler erişebilir.




WWW


Hızlı Menü: