Filmbol Forum Film İndir 720P v Avatar - 2009 - TR+ORG - 720P | tt0499549
Bildirimi Kapat
Merhaba , site giderlerini bir nebze olsun karşılamak adına link kısaltma servisleri kullanmaya başladık. İndirme linkleri sizi ouo.io adresinde yönlendirecek, 3 saniye geçtikten sonra Get Link butonuna tıklayarak linke ulaşacaksınız. Premium üyeler bu durumdan etkilenmeyecektir.


Premium Üyelik Al

Avatar - 2009 - TR+ORG - 720P | tt0499549
TheSteeL
Avatar - 2009 - TR+ORG - 720P | tt0499549
1
65
  • Derecelendirme: 0/5 - 0 oy
  • 1
  • 2
  • 3
  • 4
  • 5
Konuyu Okuyanlar:2 Ziyaretçi
Şuan Online!
Filmin Yayınlanma Tarihi: 2009 
Şuan Online!
TheSteeL Chief Executive Officer
******
CEO


 Avatar



Avatar vizyona girdiği anda hem film eleştirmenleri, hem izleyiciler hemde tarafımızca çok beğenilmiş bir film oldu. Çok farklı konusu, üç boyutlu yapısı ve yüksek bütçesi ile Avatar, Jake isminde yarı felçli bir adamı konu ediniyor. Jake ayakları hissetmez ve bu yüzden yürüme şansı hayatı boyunca sıfır olarak devam edecektir. Fakat karşısına büyük bir fırsat çıkar. Pandora isimli bir gezegen keşfedilmiş fakat buraya gitmeden önce bazı testler yapılmalıdır. Bu yüzden son teknoloji ürünü bir sistem ile Pandora gezegeninde yeni insansı vücutlar oluşturularak dünyadan yönetilmeye devam edecektir. Jake bu seçimlere katılır ve görev alır. Şimdi bu diğer gezegende Jake artık yürüyebilecek ve koşacak hâle gelir. Ancak Jake bu duruma fazla alıştığı da, görev tehlikeye girmeye başlayacaktır...

Avatar (2009) | tt0499549 Filmi Imdb'den 1141000 kişi tarafından oylandı ve 7,8 puan aldı. Bu film için editör puanı %90 olarak belirlendi. İyi Seyirler!

Teknik Detaylar

Kod :
General
Unique ID                                : 44303719120853454371640538061987244168 (0x215495FF867CD859FB45D6139C89E888)
Complete name                            : /home/TheSteel/Desktop/2/Avatar.2009.720p.Extended.Bluray.x264.TR.ENG.Filmbol.mkv
Format                                   : Matroska
Format version                           : Version 4
File size                                : 2.47 GiB
Duration                                 : 2 h 58 min
Overall bit rate                         : 1 987 kb/s
Movie name                               : Avatar - 2009 | Filmbol.org
Encoded date                             : UTC 2021-06-29 22:48:56
Writing application                      : mkvmerge v31.0.0 ('Dolores In A Shoestand') 64-bit
Writing library                          : libebml v1.3.6 + libmatroska v1.4.9

Video
ID                                       : 1
Format                                   : AVC
Format/Info                              : Advanced Video Codec
Format profile                           : [email protected]
Format settings                          : CABAC / 4 Ref Frames
Format settings, CABAC                   : Yes
Format settings, Reference frames        : 4 frames
Codec ID                                 : V_MPEG4/ISO/AVC
Duration                                 : 2 h 58 min
Bit rate                                 : 1 505 kb/s
Width                                    : 1 280 pixels
Height                                   : 720 pixels
Display aspect ratio                     : 16:9
Frame rate mode                          : Constant
Frame rate                               : 23.976 (24000/1001) FPS
Color space                              : YUV
Chroma subsampling                       : 4:2:0
Bit depth                                : 8 bits
Scan type                                : Progressive
Bits/(Pixel*Frame)                       : 0.068
Stream size                              : 1.87 GiB (76%)
Title                                    : 720P - Filmbol.org
Writing library                          : x264 core 130 r2273 b3065e6
Encoding settings                        : cabac=1 / ref=4 / deblock=1:-1:-1 / analyse=0x3:0x133 / me=umh / subme=9 / psy=1 / psy_rd=1.00:0.15 / mixed_ref=1 / me_range=16 / chroma_me=1 / trellis=2 / 8x8dct=1 / cqm=0 / deadzone=21,11 / fast_pskip=1 / chroma_qp_offset=-3 / threads=12 / lookahead_threads=1 / sliced_threads=0 / nr=0 / decimate=1 / interlaced=0 / bluray_compat=0 / constrained_intra=0 / bframes=3 / b_pyramid=2 / b_adapt=2 / b_bias=0 / direct=3 / weightb=1 / open_gop=0 / weightp=2 / keyint=240 / keyint_min=23 / scenecut=40 / intra_refresh=0 / rc_lookahead=60 / rc=2pass / mbtree=1 / bitrate=1505 / ratetol=1.0 / qcomp=0.60 / qpmin=10 / qpmax=51 / qpstep=4 / cplxblur=20.0 / qblur=0.5 / ip_ratio=1.40 / aq=1:1.00
Language                                 : English
Default                                  : Yes
Forced                                   : No

Audio #1
ID                                       : 2
Format                                   : AC-3
Format/Info                              : Audio Coding 3
Commercial name                          : Dolby Digital
Codec ID                                 : A_AC3
Duration                                 : 2 h 58 min
Bit rate mode                            : Constant
Bit rate                                 : 384 kb/s
Channel(s)                               : 6 channels
Channel layout                           : L R C LFE Ls Rs
Sampling rate                            : 48.0 kHz
Frame rate                               : 31.250 FPS (1536 SPF)
Compression mode                         : Lossy
Delay relative to video                  : -83 ms
Stream size                              : 489 MiB (19%)
Title                                    : Türkçe - Filmbol.org
Service kind                             : Complete Main
Default                                  : Yes
Forced                                   : No

Audio #2
ID                                       : 3
Format                                   : AAC LC
Format/Info                              : Advanced Audio Codec Low Complexity
Codec ID                                 : A_AAC-2
Duration                                 : 2 h 58 min
Bit rate                                 : 96.0 kb/s
Channel(s)                               : 2 channels
Channel layout                           : L R
Sampling rate                            : 48.0 kHz
Frame rate                               : 46.875 FPS (1024 SPF)
Compression mode                         : Lossy
Delay relative to video                  : -83 ms
Stream size                              : 122 MiB (5%)
Title                                    : Orjinal Dil - Filmbol.org
Language                                 : English
Default                                  : No
Forced                                   : No

Text #1
ID                                       : 4
Format                                   : UTF-8
Codec ID                                 : S_TEXT/UTF8
Codec ID/Info                            : UTF-8 Plain Text
Duration                                 : 2 h 19 min
Bit rate                                 : 2 b/s
Count of elements                        : 95
Stream size                              : 2.36 KiB (0%)
Title                                    : Türkçe - Filmbol.org
Default                                  : Yes
Forced                                   : Yes

Text #2
ID                                       : 5
Format                                   : UTF-8
Codec ID                                 : S_TEXT/UTF8
Codec ID/Info                            : UTF-8 Plain Text
Duration                                 : 2 h 51 min
Bit rate                                 : 40 b/s
Count of elements                        : 1554
Stream size                              : 51.1 KiB (0%)
Title                                    : Türkçe - Filmbol.org
Default                                  : No
Forced                                   : No

Film Detayları


 Avatar

 Avatar

 Avatar


Film Fragmanı


Film Detayları



Zip Şifresi: filmbol.org Aşağıdaki butona tıklayarak kopyalabilirsiniz.


Uptobox ile indir

1Fichier ile indir

1Fichier'den İndiremiyor musun? Tıklayın!





Filmbol Cloud

Bunun için üzgünüz ancak, bu linke sadece premium üyeler erişebilir.




WWW
Şuan Offine!
Şuan Offine!
myzrail Yeni Üye
*
Üye
  • Konular0
  • Mesajlar125
  • Rep puanı 0
efsane


Hızlı Menü: