Filmbol Forum Film İndir UHD - ULTRA HD - 4K v Bumblebee - 2018 - TR+ORG - UHD (4K) - 10Bit-x265 | tt4701182
Bildirimi Kapat
Merhaba , site giderlerini bir nebze olsun karşılamak adına link kısaltma servisleri kullanmaya başladık. İndirme linkleri sizi ouo.io adresinde yönlendirecek, 3 saniye geçtikten sonra Get Link butonuna tıklayarak linke ulaşacaksınız. Premium üyeler bu durumdan etkilenmeyecektir.


Premium Üyelik Al

Bumblebee - 2018 - TR+ORG - UHD (4K) - 10Bit-x265 | tt4701182
BroserBros
Bumblebee - 2018 - TR+ORG - UHD (4K) - 10Bit-x265 | tt4701182
0
18
  • Derecelendirme: 0/5 - 0 oy
  • 1
  • 2
  • 3
  • 4
  • 5
Konuyu Okuyanlar:3 Ziyaretçi
Şuan Online!
Filmin Yayınlanma Tarihi: 2018 
Şuan Online!
BroserBros Kurucu Admin
*******
Admin


 Bumblebee



Otobotlara yeni bir yuva bulmak üzere görevlendirilen Bumblebee, 1987 yılında Kaliforniya’da bulunan bir sahil kasabasına yerleşir. İşler yolunda gitmez ve Bumblebee bir hurdalığa düşer. Charlie Watson, bu yaralı ve savaştan yorgun düşmüş otobot için elinden geleni yapacak ve yaralarını saracaktır.

Bumblebee (2018) | tt4701182 Filmi Imdb'den 150,000 kişi tarafından oylandı ve 6,8 puan aldı. Bu film için editör puanı %80 olarak belirlendi. İyi Seyirler!

Teknik Detaylar

Kod :
General
Unique ID                                : 34407311585962713216534468454275017907 (0x19E29B6F6C3B85F3E1CCF8A76AB6ECB3)
Complete name                            : /home/BroserBros/Desktop/3/Bumblebee.2018.2160p.4K.BluRay.x265.10Bit.HDR.HEVC.TR.ENG.Filmbol.mkv
Format                                   : Matroska
Format version                           : Version 4
File size                                : 18.1 GiB
Duration                                 : 1 h 53 min
Overall bit rate mode                    : Variable
Overall bit rate                         : 22.7 Mb/s
Movie name                               : Bumblebee - 2018 | Filmbol.org
Encoded date                             : UTC 2021-06-29 07:57:57
Writing application                      : mkvmerge v53.0.0 ('Fool's Gold') 64-bit
Writing library                          : libebml v1.4.1 + libmatroska v1.6.2
Cover                                    : Yes
Attachments                              : cover.jpg

Video
ID                                       : 1
Format                                   : HEVC
Format/Info                              : High Efficiency Video Coding
Format profile                           : Main [email protected]@Main
HDR format                               : SMPTE ST 2086, HDR10 compatible
Codec ID                                 : V_MPEGH/ISO/HEVC
Duration                                 : 1 h 53 min
Bit rate                                 : 17.4 Mb/s
Width                                    : 3 840 pixels
Height                                   : 2 160 pixels
Display aspect ratio                     : 16:9
Frame rate mode                          : Constant
Frame rate                               : 23.976 (24000/1001) FPS
Color space                              : YUV
Chroma subsampling                       : 4:2:0
Bit depth                                : 10 bits
Bits/(Pixel*Frame)                       : 0.088
Stream size                              : 13.9 GiB (77%)
Title                                    : 4K - Filmbol.org
Writing library                          : x265 3.1+11-de920e0a3183:[Windows][GCC 9.1.1][64 bit] 10bit
Encoding settings                        : rc=abr / bitrate=18000 / qcomp=0.60 / qpstep=4 / qpmax=69 / qpmin=0 / no-lossless / no-cu-lossless / ipratio=1.40 / pbratio=1.30 / aq-mode=4 / aq-strength=1.00 / psy-rd=2.00 / psy-rdoq=1.50 / rdoq-level=2 / cbqpoffs=0 / crqpoffs=0 / ctu=64 / min-cu-size=8 / ref=4 / limit-refs=3 / limit-modes / me=3 / subme=3 / merange=57 / no-hme / rd=4 / no-rd-refine / no-ssim-rd / rdpenalty=0 / deblock=-1:-1 / min-keyint=23 / keyint=250 / bframes=4 / bframe-bias=0 / b-adapt=2 / no-b-intra / b-pyramid / cutree / max-merge=3 / no-fades / weightp / no-weightb / rect / no-amp / sao / no-limit-sao / sao-non-deblock / no-early-skip / no-splitrd-skip / rskip / no-tskip / no-tskip-fast / no-fast-intra / scenecut=40 / scenecut-bias=0.00 / rc-lookahead=40 / gop-lookahead=0 / lookahead-slices=4 / max-tu-size=32 / tu-inter-depth=1 / tu-intra-depth=1 / limit-tu=0 / qg-size=32 / radl=0 / open-gop / no-hevc-aq / no-aq-motion / no-dynamic-refine / dynamic-rd=0.00 / nr-intra=0 / nr-inter=0 / strong-intra-smoothing / no-constrained-intra / no-strict-cbr / no-const-vbv / no-rc-grain / wpp / no-pmode / no-pme / no-psnr / no-ssim / signhide / stats-write=0 / stats-read=0 / zone-count=0 / input-csp=1 / input-res=3840x2160 / interlace=0 / total-frames=163840 / frame-threads=6 / level-idc=0 / high-tier=1 / uhd-bd=0 / no-analyze-src-pics / no-allow-non-conformance / repeat-headers / annexb / aud / no-hrd / info / hash=0 / temporal-mvp / no-temporal-layers / no-splice / no-intra-refresh / sar=0 / overscan=0 / videoformat=5 / range=0 / colorprim=9 / transfer=16 / colormatrix=9 / chromaloc=0 / display-window=0 / master-display=G(13250,34500)B(7500,3000)R(34000,16000)WP(15635,16450)L(10000000,1)cll=0,0 / min-luma=0 / max-luma=1023 / log2-max-poc-lsb=8 / vui-timing-info / vui-hrd-info / slices=1 / no-opt-qp-pps / no-opt-ref-list-length-pps / no-multi-pass-opt-rps / no-opt-cu-delta-qp / hdr / hdr-opt / no-dhdr10-opt / no-idr-recovery-sei / analysis-reuse-level=5 / scale-factor=0 / refine-intra=0 / refine-inter=0 / refine-mv=0 / refine-ctu-distortion=0 / refine-analysis-type=0 / ctu-info=0 / copy-pic=1 / max-ausize-factor=1.0 / no-single-sei / no-svt / no-field / no-lowpass-dct / cpuid=1049583 / numa-pools=16,16 / log-level=2 / qp-adaptation-range=1.00
Default                                  : Yes
Forced                                   : No
Color range                              : Limited
Color primaries                          : BT.2020
Transfer characteristics                 : PQ
Matrix coefficients                      : BT.2020 non-constant
Mastering display color primaries        : Display P3
Mastering display luminance              : min: 0.0001 cd/m2, max: 1000 cd/m2

Audio #1
ID                                       : 2
Format                                   : AC-3
Format/Info                              : Audio Coding 3
Commercial name                          : Dolby Digital
Codec ID                                 : A_AC3
Duration                                 : 1 h 53 min
Bit rate mode                            : Constant
Bit rate                                 : 448 kb/s
Channel(s)                               : 6 channels
Channel layout                           : L R C LFE Ls Rs
Sampling rate                            : 48.0 kHz
Frame rate                               : 31.250 FPS (1536 SPF)
Compression mode                         : Lossy
Delay relative to video                  : 1 s 0 ms
Stream size                              : 365 MiB (2%)
Title                                    : Türkçe - Filmbol.org
Language                                 : Turkish
Service kind                             : Complete Main
Default                                  : Yes
Forced                                   : Yes

Audio #2
ID                                       : 3
Format                                   : MLP FBA 16-ch
Format/Info                              : Meridian Lossless Packing FBA with 16-channel presentation
Commercial name                          : Dolby TrueHD with Dolby Atmos
Codec ID                                 : A_TRUEHD
Duration                                 : 1 h 53 min
Bit rate mode                            : Variable
Bit rate                                 : 4 736 kb/s
Maximum bit rate                         : 7 761 kb/s
Channel(s)                               : 8 channels
Channel layout                           : L R C LFE Ls Rs Lb Rb
Sampling rate                            : 48.0 kHz
Frame rate                               : 1 200.000 FPS (40 SPF)
Compression mode                         : Lossless
Stream size                              : 3.77 GiB (21%)
Title                                    : Orijinal Dil - Filmbol.org
Language                                 : English
Default                                  : No
Forced                                   : No
Number of dynamic objects                : 11
Bed channel count                        : 1 channel
Bed channel configuration                : LFE

Text #1
ID                                       : 4
Format                                   : UTF-8
Codec ID                                 : S_TEXT/UTF8
Codec ID/Info                            : UTF-8 Plain Text
Duration                                 : 1 h 45 min
Bit rate                                 : 1 b/s
Count of elements                        : 46
Stream size                              : 1.23 KiB (0%)
Title                                    : Türkçe - Filmbol.org
Language                                 : Turkish
Default                                  : Yes
Forced                                   : Yes

Text #2
ID                                       : 5
Format                                   : UTF-8
Codec ID                                 : S_TEXT/UTF8
Codec ID/Info                            : UTF-8 Plain Text
Duration                                 : 1 h 52 min
Bit rate                                 : 41 b/s
Count of elements                        : 1190
Stream size                              : 33.9 KiB (0%)
Title                                    : Türkçe - Filmbol.org
Language                                 : Turkish
Default                                  : No
Forced                                   : No

Text #3
ID                                       : 6
Format                                   : VobSub
Muxing mode                              : zlib
Codec ID                                 : S_VOBSUB
Codec ID/Info                            : Picture based subtitle format used on DVDs
Duration                                 : 1 h 48 min
Bit rate                                 : 7 576 b/s
Count of elements                        : 1222
Stream size                              : 5.89 MiB (0%)
Title                                    : Orijinal Dil - Filmbol.org
Language                                 : English
Default                                  : No
Forced                                   : No

Text #4
ID                                       : 7
Format                                   : VobSub
Muxing mode                              : zlib
Codec ID                                 : S_VOBSUB
Codec ID/Info                            : Picture based subtitle format used on DVDs
Duration                                 : 1 h 52 min
Bit rate                                 : 6 794 b/s
Count of elements                        : 1144
Stream size                              : 5.49 MiB (0%)
Title                                    : Türkçe VOB - Filmbol.org
Language                                 : Turkish
Default                                  : No
Forced                                   : No

Film Detayları


 Bumblebee

 Bumblebee

 Bumblebee


Film Fragmanı


Film Detayları



Zip Şifresi: filmbol.org Aşağıdaki butona tıklayarak kopyalabilirsiniz.





Filmbol Cloud

Bunun için üzgünüz ancak, bu linke sadece premium üyeler erişebilir.




WWW


Hızlı Menü: