Filmbol Forum Film İndir BRRip XviD v Operasyon: Argo (Argo) - 2012 - TR - BRRip XviD | tt1024648
Bildirimi Kapat
Merhaba , site giderlerini bir nebze olsun karşılamak adına link kısaltma servisleri kullanmaya başladık. İndirme linkleri sizi ouo.io adresinde yönlendirecek, 3 saniye geçtikten sonra Get Link butonuna tıklayarak linke ulaşacaksınız. Premium üyeler bu durumdan etkilenmeyecektir.


Premium Üyelik Al

Operasyon: Argo (Argo) - 2012 - TR - BRRip XviD | tt1024648
TheSteeL
Operasyon: Argo (Argo) - 2012 - TR - BRRip XviD | tt1024648
2
44
  • Derecelendirme: 0/5 - 0 oy
  • 1
  • 2
  • 3
  • 4
  • 5
Konuyu Okuyanlar:2 Ziyaretçi
Şuan Online!
Filmin Yayınlanma Tarihi: 2012 
Şuan Online!
TheSteeL Chief Executive Officer
******
CEO


 Operasyon: Argo



İran devrimi altın çağına girmiş, şah devrilmiş ve devrimciler kendilerini ölümsüz ilan etmiştir. Bu yüzden hiç bir devletten yada kişiden korkmayan devrimciler gözünü ABD tarafına çevirerek 52 Amerikan vatandaşını esir alırlar. Bu durum sonrasında ABD hükümeti onlarla anlaşma yapmaya çalışsa da başka büyük bir sorun vardır. 52 kişiden 6 tanesi bu teröristlerin elinden kaçmayı başarmış ancak hayati riskleri diğer kişilerden daha yüksektir. Bu yüzden hükümet bu 6 kişiyi ayrı olarak kurtarmak için çok özel bir tim gönderir ve bu tim hem küçük olmak zorunda hemde büyük ordular ile başa çıkma kabiliyetine sahip olmalıdır...

Operasyon: Argo (2012) (Argo) | tt1024648 Filmi Imdb'den 584000 kişi tarafından oylandı ve 7,7 puan aldı. Bu film için editör puanı %87 olarak belirlendi. İyi Seyirler!

Teknik Detaylar

Kod :
General
Complete name                            : /home/TheSteel/Desktop/2/Operasyon.Argo.2012.BRRip.Xvid.TR.Filmbol.avi
Format                                   : AVI
Format/Info                              : Audio Video Interleave
File size                                : 1.03 GiB
Duration                                 : 2 h 0 min
Overall bit rate                         : 1 230 kb/s

Video
ID                                       : 0
Format                                   : MPEG-4 Visual
Format profile                           : Advanced [email protected]
Format settings                          : BVOP2
Format settings, BVOP                    : 2
Format settings, QPel                    : No
Format settings, GMC                     : No warppoints
Format settings, Matrix                  : Default (H.263)
Codec ID                                 : DIVX
Codec ID/Info                            : Project Mayo
Codec ID/Hint                            : DivX 4
Duration                                 : 2 h 0 min
Bit rate                                 : 1 025 kb/s
Width                                    : 776 pixels
Height                                   : 320 pixels
Display aspect ratio                     : 2.40:1
Frame rate                               : 23.976 (24000/1001) FPS
Color space                              : YUV
Chroma subsampling                       : 4:2:0
Bit depth                                : 8 bits
Scan type                                : Progressive
Compression mode                         : Lossy
Bits/(Pixel*Frame)                       : 0.172
Stream size                              : 883 MiB (83%)
Writing library                          : XviD 67

Audio
ID                                       : 1
Format                                   : MPEG Audio
Format version                           : Version 1
Format profile                           : Layer 3
Codec ID                                 : 55
Codec ID/Hint                            : MP3
Duration                                 : 2 h 0 min
Bit rate mode                            : Constant
Bit rate                                 : 192 kb/s
Channel(s)                               : 2 channels
Sampling rate                            : 48.0 kHz
Compression mode                         : Lossy
Stream size                              : 165 MiB (16%)
Alignment                                : Aligned on interleaves
Interleave, duration                     : 24  ms (0.58 video frame)
Writing library                          : LAME3.100

Film Detayları


 Operasyon: Argo

 Operasyon: Argo

 Operasyon: Argo


Film Fragmanı


Film Detayları



Zip Şifresi: filmbol.org Aşağıdaki butona tıklayarak kopyalabilirsiniz.



Uptobox ile indir

1Fichier ile indir

1Fichier'den İndiremiyor musun? Tıklayın!





Filmbol Cloud

Bunun için üzgünüz ancak, bu linke sadece premium üyeler erişebilir.




WWW
Şuan Offine!
Şuan Offine!
Furkan61 Cezalı Üye
  • Konular0
  • Mesajlar329
Teşekkürler
Şuan Online!
Şuan Online!
TheSteeL Chief Executive Officer
******
CEO
(30-06-2021, Saat: 00:49)Furkan61 Adlı Kullanıcıdan Alıntı: Teşekkürler
İyi Seyirler


Hızlı Menü: