Filmbol Forum Film İndir BRRip XviD v Kimsin Sen? (Good on Paper) - 2021 - TR - BRRip XviD | tt8231668
Bildirimi Kapat
Merhaba , site giderlerini bir nebze olsun karşılamak adına link kısaltma servisleri kullanmaya başladık. İndirme linkleri sizi ouo.io adresinde yönlendirecek, 3 saniye geçtikten sonra Get Link butonuna tıklayarak linke ulaşacaksınız. Premium üyeler bu durumdan etkilenmeyecektir.


Premium Üyelik Al

Kimsin Sen? (Good on Paper) - 2021 - TR - BRRip XviD | tt8231668
TheSteeL
Kimsin Sen? (Good on Paper) - 2021 - TR - BRRip XviD | tt8231668
0
31
  • Derecelendirme: 0/5 - 0 oy
  • 1
  • 2
  • 3
  • 4
  • 5
Konuyu Okuyanlar:2 Ziyaretçi
Şuan Online!
Filmin Yayınlanma Tarihi: 2021 
Şuan Online!
TheSteeL Chief Executive Officer
******
CEO


 Kimsin Sen?



Andrea Singer, başarılı bir komedyen ve çok seçici bir insandır. Bu yüzden hem kariyerinin etkisi hem de seçiciliği yüzünden bir türlü aradığı kişiyi bulamaz ve hayatının yalnız sürdürmeye devam eder. Bir süre sonra işlerin bu şekilde doğru yürümediğini, kendisine uygun bir eş bulması gerektiğine karar verir. Neyse ki Andrea başarılı komedyenliğinin ardında çok şanslı bir kadındır, tam da istediği gibi birini şans eseri bulur. Uzun süre boyunca onu tanımaya başlar ve ilişkilerini ilerletme kararı alır. Fakat bu adam Andrea'nın gerçekten istediği biri midir?

Kimsin Sen? (2021) (Good on Paper) | tt8231668 Filmi Imdb'den 3500 kişi tarafından oylandı ve 5,5 puan aldı. Bu film için editör puanı %64 olarak belirlendi. İyi Seyirler!

Teknik Detaylar

Kod :
General
Unique ID                                : 237558050646218506353066375592419386851 (0xB2B8042E014A322ADFF47C7CCB0DE5E3)
Complete name                            : /home/TheSteel/Desktop/1/Kimsin.Sen.2021.HDRip.XViD.TR.Filmbol.avi
Format                                   : Matroska
Format version                           : Version 4
File size                                : 957 MiB
Duration                                 : 1 h 34 min
Overall bit rate                         : 1 423 kb/s
Movie name                               : Good On Paper - Kimsin Sen ? - 2021 | Filmbol.org
Encoded date                             : UTC 2021-06-27 10:45:03
Writing application                      : mkvmerge v31.0.0 ('Dolores In A Shoestand') 64-bit
Writing library                          : libebml v1.3.6 + libmatroska v1.4.9
FileExtension_Invalid                    : mkv mk3d mka mks

Video
ID                                       : 1
Format                                   : MPEG-4 Visual
Format profile                           : [email protected]
Format settings, BVOP                    : No
Format settings, QPel                    : No
Format settings, GMC                     : No warppoints
Format settings, Matrix                  : Default (H.263)
Codec ID                                 : V_MS/VFW/FOURCC / XVID
Codec ID/Hint                            : XviD
Duration                                 : 1 h 34 min
Bit rate                                 : 1 293 kb/s
Width                                    : 720 pixels
Height                                   : 302 pixels
Display aspect ratio                     : 2.40:1
Frame rate mode                          : Constant
Frame rate                               : 23.976 FPS
Color space                              : YUV
Chroma subsampling                       : 4:2:0
Bit depth                                : 8 bits
Scan type                                : Progressive
Compression mode                         : Lossy
Bits/(Pixel*Frame)                       : 0.248
Stream size                              : 870 MiB (91%)
Title                                    : Good On Paper - Kimsin Sen ? - 2021 | Filmbol.org
Writing library                          : Lavc58.35.100
Default                                  : Yes
Forced                                   : No

Audio
ID                                       : 2
Format                                   : MPEG Audio
Format version                           : Version 1
Format profile                           : Layer 3
Format settings                          : Joint stereo / MS Stereo
Codec ID                                 : A_MPEG/L3
Codec ID/Hint                            : MP3
Duration                                 : 1 h 34 min
Bit rate mode                            : Constant
Bit rate                                 : 128 kb/s
Channel(s)                               : 2 channels
Sampling rate                            : 48.0 kHz
Frame rate                               : 41.667 FPS (1152 SPF)
Compression mode                         : Lossy
Stream size                              : 86.1 MiB (9%)
Title                                    : Good On Paper - Kimsin Sen ? - 2021 | Filmbol.org
Writing library                          : LAME3.99.5
Default                                  : Yes
Forced                                   : No

Film Detayları


 Kimsin Sen?

 Kimsin Sen?

 Kimsin Sen?


Film Fragmanı


Film Detayları



Zip Şifresi: filmbol.org Aşağıdaki butona tıklayarak kopyalabilirsiniz.



Uptobox ile indir

1Fichier ile indir

1Fichier'den İndiremiyor musun? Tıklayın!





Filmbol Cloud

Bunun için üzgünüz ancak, bu linke sadece premium üyeler erişebilir.




WWW


Hızlı Menü: