Filmbol Forum Film İndir FHD - FULL HD v Hotel Artemis - 2018 - TR+ORG - FHD - x264 | tt5834262
Bildirimi Kapat
Merhaba , site giderlerini bir nebze olsun karşılamak adına link kısaltma servisleri kullanmaya başladık. İndirme linkleri sizi ouo.io adresinde yönlendirecek, 3 saniye geçtikten sonra Get Link butonuna tıklayarak linke ulaşacaksınız. Premium üyeler bu durumdan etkilenmeyecektir.


Premium Üyelik Al

Hotel Artemis - 2018 - TR+ORG - FHD - x264 | tt5834262
BroserBros
Hotel Artemis - 2018 - TR+ORG - FHD - x264 | tt5834262
0
21
  • Derecelendirme: 0/5 - 0 oy
  • 1
  • 2
  • 3
  • 4
  • 5
Konuyu Okuyanlar:2 Ziyaretçi
Şuan Online!
Filmin Yayınlanma Tarihi: 2018 
Şuan Online!
BroserBros Kurucu Admin
*******
Admin


 Hotel Artemis



‘Hemşire’ olarak tanınan Jean Thomas gündüzleri yasal mesleğiyle ilgilenirken, aynı zamanda Los Angeles’ın en azılı suçluları için de gizli bir hastaneyi yönetmektedir. Suikastçılar, silah kaçakçıları, hırsızlar ve gangsterlerin hizmet aldığı hastane son teknoloji cihazlarla doludur. Hastaneye gelen bir hastaya üç boyutlu yazıcılar ile yeni bir karaciğer yapılabilir veya hastanın vücuduna nanorobotlar enjekte edilebilir. Ancak Los Angeles sokaklarında şiddetli bir isyan çıktığı gün hastanede işler karışır. Efsanevi mayfa babası Orian Franklin acil bir müdahale için hastaneye gelir fakat ardından gelen Niagara’nın niyeti barışçıl değildir. Hastanedeki ‘hastalar’ arasında gerilim tırmanırken, Hemşire acil servisteki herkesin hayatını tehlikeye atabilecek bir karar verir. Şehirdeki suçluların güvenli sığınağı olan yer artık onlar için en tehlikeli yerdir…

Hotel Artemis (2018) | tt5834262 Filmi Imdb'den 50,000 kişi tarafından oylandı ve 6,1 puan aldı. Bu film için editör puanı %67 olarak belirlendi. İyi Seyirler!

Teknik Detaylar

Kod :
General
Unique ID                                : 54079762213074665904773667676461709963 (0x28AF6222C6D52E83D512F0238E73BA8B)
Complete name                            : /home/BroserBros/Desktop/8/Hotel.Artemis.2018.FHD.BluRay.x264.TR.ENG.Filmbol.mkv
Format                                   : Matroska
Format version                           : Version 4
File size                                : 6.75 GiB
Duration                                 : 1 h 33 min
Overall bit rate                         : 10.3 Mb/s
Movie name                               : Hotel Artemis - 2018 | Filmbol.org
Encoded date                             : UTC 2021-06-26 12:44:29
Writing application                      : mkvmerge v53.0.0 ('Fool's Gold') 64-bit
Writing library                          : libebml v1.4.1 + libmatroska v1.6.2

Video
ID                                       : 1
Format                                   : AVC
Format/Info                              : Advanced Video Codec
Format profile                           : [email protected]
Format settings                          : CABAC / 5 Ref Frames
Format settings, CABAC                   : Yes
Format settings, Reference frames        : 5 frames
Codec ID                                 : V_MPEG4/ISO/AVC
Duration                                 : 1 h 33 min
Bit rate                                 : 8 622 kb/s
Width                                    : 1 920 pixels
Height                                   : 800 pixels
Display aspect ratio                     : 2.40:1
Frame rate mode                          : Constant
Frame rate                               : 23.976 (24000/1001) FPS
Color space                              : YUV
Chroma subsampling                       : 4:2:0
Bit depth                                : 8 bits
Scan type                                : Progressive
Bits/(Pixel*Frame)                       : 0.234
Stream size                              : 5.65 GiB (84%)
Title                                    : FHD - Filmbol.org
Writing library                          : x264 core 157 r2969 d4099dd
Language                                 : English
Default                                  : Yes
Forced                                   : No

Audio #1
ID                                       : 2
Format                                   : AC-3
Format/Info                              : Audio Coding 3
Commercial name                          : Dolby Digital
Codec ID                                 : A_AC3
Duration                                 : 1 h 26 min
Bit rate mode                            : Constant
Bit rate                                 : 192 kb/s
Channel(s)                               : 2 channels
Channel layout                           : L R
Sampling rate                            : 48.0 kHz
Frame rate                               : 31.250 FPS (1536 SPF)
Compression mode                         : Lossy
Stream size                              : 119 MiB (2%)
Title                                    : Türkçe - Filmbol.org
Language                                 : Turkish
Service kind                             : Complete Main
Default                                  : Yes
Forced                                   : No

Audio #2
ID                                       : 3
Format                                   : DTS
Format/Info                              : Digital Theater Systems
Codec ID                                 : A_DTS
Duration                                 : 1 h 33 min
Bit rate mode                            : Constant
Bit rate                                 : 1 509 kb/s
Channel(s)                               : 6 channels
Channel layout                           : C L R Ls Rs LFE
Sampling rate                            : 48.0 kHz
Frame rate                               : 93.750 FPS (512 SPF)
Bit depth                                : 24 bits
Compression mode                         : Lossy
Stream size                              : 1 012 MiB (15%)
Title                                    : Orijinal Dil - Filmbol.org
Language                                 : English
Default                                  : No
Forced                                   : No

Text #1
ID                                       : 4
Format                                   : UTF-8
Codec ID                                 : S_TEXT/UTF8
Codec ID/Info                            : UTF-8 Plain Text
Duration                                 : 1 h 25 min
Bit rate                                 : 68 b/s
Count of elements                        : 1344
Stream size                              : 42.7 KiB (0%)
Title                                    : Türkçe - Filmbol.org
Language                                 : Turkish
Default                                  : No
Forced                                   : No

Text #2
ID                                       : 5
Format                                   : UTF-8
Codec ID                                 : S_TEXT/UTF8
Codec ID/Info                            : UTF-8 Plain Text
Duration                                 : 1 h 33 min
Bit rate                                 : 76 b/s
Count of elements                        : 1678
Stream size                              : 52.3 KiB (0%)
Title                                    : Orijinal Dil - Filmbol.org
Language                                 : English
Default                                  : No
Forced                                   : No

Film Detayları


 Hotel Artemis

 Hotel Artemis

 Hotel Artemis


Film Fragmanı


Film Detayları



Zip Şifresi: filmbol.org Aşağıdaki butona tıklayarak kopyalabilirsiniz.





Filmbol Cloud

Bunun için üzgünüz ancak, bu linke sadece premium üyeler erişebilir.




WWW


Hızlı Menü: