Filmbol Forum Film İndir FHD - FULL HD v Mandy - 2018 - TR+ORG - FHD - x264 | tt6998518
Bildirimi Kapat
Merhaba , site giderlerini bir nebze olsun karşılamak adına link kısaltma servisleri kullanmaya başladık. İndirme linkleri sizi ouo.io adresinde yönlendirecek, 3 saniye geçtikten sonra Get Link butonuna tıklayarak linke ulaşacaksınız. Premium üyeler bu durumdan etkilenmeyecektir.


Premium Üyelik Al

Mandy - 2018 - TR+ORG - FHD - x264 | tt6998518
BroserBros
Mandy - 2018 - TR+ORG - FHD - x264 | tt6998518
0
14
  • Derecelendirme: 0/5 - 0 oy
  • 1
  • 2
  • 3
  • 4
  • 5
Konuyu Okuyanlar:2 Ziyaretçi
Şuan Online!
Filmin Yayınlanma Tarihi: 2018 
Şuan Online!
BroserBros Kurucu Admin
*******
Admin


 Mandy



Sevgi dolu bir çift olan Red ve Mandy, ormandaki küçük bir kulübede sakin bir hayat sürmektedir. Hayatlarından fazlasıyla memnun olan Red ve Mandy’nin yaşamı kabuslardan çıkıp gelen bir tarikat yüzünden altüst olur. Korkunç bir tarikatın lideri Mandy’i gözüne kestirmiştir ve verdiği emirle tarikat çiftin evine baskın yapar ve Mandy’yi Red’den alırlar. Onların amacı Mandy’nin bedenine ve ruhuna tamamen sahip olmaktır. Bu süreçte Red, karısına yapılan korkunç şeylere tanıklık etmek zorunda kalır. Red, artık intikam yemini etmiş, karısına yapılanların öcünü almaya kararlıdır. Artık Red’in tek amacı vardır; mutlu hayatlarını darmadağın eden bu korkunç tarikat ve onların hasta ruhlu liderini yakalamak ve hayatının aşkına yaptıkları korkunç şeylerin bedelini hayatlarıyla ödetmektir.
Kara Gökkuşağının Ötesi ile hatırlanan Panos Cosmatos’un yönetmenliğini üstlendiği filmde Red karakterini Nicolas Cage canlandırıyor. Mandy karakterine ise Andrea Riseborough’un hayat verdiği filmin oyuncu kadrosunda Linus Roache, Bill Duke ve Richard Brake gibi isimler de yer alıyor.

Mandy (2018) | tt6998518 Filmi Imdb'den 70,000 kişi tarafından oylandı ve 6,5 puan aldı. Bu film için editör puanı %64 olarak belirlendi. İyi Seyirler!

Teknik Detaylar

Kod :
General
Unique ID                                : 37703768472764760922907731856755127133 (0x1C5D7B4ED7BB16727FEF91C47E59F35D)
Complete name                            : /home/BroserBros/Desktop/6/Mandy.2018.FHD.BluRay.x264.TR.ENG.Filmbol.mkv
Format                                   : Matroska
Format version                           : Version 4
File size                                : 4.43 GiB
Duration                                 : 2 h 1 min
Overall bit rate                         : 5 236 kb/s
Movie name                               : Mandy - 2018 | Filmbol.org
Encoded date                             : UTC 2021-06-26 11:57:07
Writing application                      : mkvmerge v53.0.0 ('Fool's Gold') 64-bit
Writing library                          : libebml v1.4.1 + libmatroska v1.6.2

Video
ID                                       : 1
Format                                   : AVC
Format/Info                              : Advanced Video Codec
Format profile                           : [email protected]
Format settings                          : CABAC / 5 Ref Frames
Format settings, CABAC                   : Yes
Format settings, Reference frames        : 5 frames
Codec ID                                 : V_MPEG4/ISO/AVC
Duration                                 : 2 h 1 min
Bit rate                                 : 4 664 kb/s
Width                                    : 1 912 pixels
Height                                   : 800 pixels
Display aspect ratio                     : 2.40:1
Frame rate mode                          : Constant
Frame rate                               : 23.976 (23976/1000) FPS
Color space                              : YUV
Chroma subsampling                       : 4:2:0
Bit depth                                : 8 bits
Scan type                                : Progressive
Bits/(Pixel*Frame)                       : 0.127
Stream size                              : 3.95 GiB (89%)
Title                                    : FHD - Filmbol.org
Language                                 : English
Default                                  : Yes
Forced                                   : No
Color range                              : Limited
Color primaries                          : BT.709
Transfer characteristics                 : BT.709
Matrix coefficients                      : BT.709

Audio #1
ID                                       : 2
Format                                   : AC-3
Format/Info                              : Audio Coding 3
Commercial name                          : Dolby Digital
Codec ID                                 : A_AC3
Duration                                 : 1 h 57 min
Bit rate mode                            : Constant
Bit rate                                 : 192 kb/s
Channel(s)                               : 2 channels
Channel layout                           : L R
Sampling rate                            : 48.0 kHz
Frame rate                               : 31.250 FPS (1536 SPF)
Compression mode                         : Lossy
Delay relative to video                  : 8 s 958 ms
Stream size                              : 161 MiB (4%)
Title                                    : Türkçe - Filmbol.org
Language                                 : Turkish
Service kind                             : Complete Main
Default                                  : Yes
Forced                                   : No

Audio #2
ID                                       : 3
Format                                   : AC-3
Format/Info                              : Audio Coding 3
Commercial name                          : Dolby Digital
Codec ID                                 : A_AC3
Duration                                 : 2 h 1 min
Bit rate mode                            : Constant
Bit rate                                 : 384 kb/s
Channel(s)                               : 6 channels
Channel layout                           : L R C LFE Ls Rs
Sampling rate                            : 48.0 kHz
Frame rate                               : 31.250 FPS (1536 SPF)
Compression mode                         : Lossy
Delay relative to video                  : -42 ms
Stream size                              : 333 MiB (7%)
Title                                    : Orijinal Dil - Filmbol.org
Language                                 : English
Service kind                             : Complete Main
Default                                  : No
Forced                                   : No

Text
ID                                       : 4
Format                                   : UTF-8
Codec ID                                 : S_TEXT/UTF8
Codec ID/Info                            : UTF-8 Plain Text
Duration                                 : 1 h 56 min
Bit rate                                 : 18 b/s
Count of elements                        : 450
Stream size                              : 16.2 KiB (0%)
Title                                    : Türkçe - Filmbol.org
Language                                 : Turkish
Default                                  : Yes
Forced                                   : No

Film Detayları


 Mandy

 Mandy

 Mandy


Film Fragmanı


Film Detayları



Zip Şifresi: filmbol.org Aşağıdaki butona tıklayarak kopyalabilirsiniz.





Filmbol Cloud

Bunun için üzgünüz ancak, bu linke sadece premium üyeler erişebilir.




WWW


Hızlı Menü: