Filmbol Forum Film İndir BRRip XviD v Barb ve Star Tatilde (Barb and Star) - 2021 - TR - BRRip XviD | tt3797512
Bildirimi Kapat
Merhaba , site giderlerini bir nebze olsun karşılamak adına link kısaltma servisleri kullanmaya başladık. İndirme linkleri sizi ouo.io adresinde yönlendirecek, 3 saniye geçtikten sonra Get Link butonuna tıklayarak linke ulaşacaksınız. Premium üyeler bu durumdan etkilenmeyecektir.


Premium Üyelik Al

Barb ve Star Tatilde (Barb and Star) - 2021 - TR - BRRip XviD | tt3797512
TheSteeL
Barb ve Star Tatilde (Barb and Star) - 2021 - TR - BRRip XviD | tt3797512
0
32
  • Derecelendirme: 0/5 - 0 oy
  • 1
  • 2
  • 3
  • 4
  • 5
Konuyu Okuyanlar:2 Ziyaretçi
Şuan Online!
Filmin Yayınlanma Tarihi: 2021 
Şuan Online!
TheSteeL Chief Executive Officer
******
CEO


 Barb ve Star Tatilde



Küçük bir kasabada, mis gibi yaşayan iki genç için hayat çok sıkıcıdır. Onların biraz heyecan ve adrenalin ihtiyacı vardır. Neyse ki bu istekleri sonunda gerçek olmaya çok yakındır. Kasabadan ilk defa ayrılarak Florida'ya giden bu iki genç burunlarını her yere sokmaya başlar. Bir süre bu iki genç sonra sınırları aştığında başları feci şekilde belaya girecektir...

Barb ve Star Tatilde (2021) (Barb and Star Go to Vista Del Mar) | tt3797512 Filmi Imdb'den 8500 kişi tarafından oylandı ve 6,4 puan aldı. Bu film için editör puanı %73 olarak belirlendi. İyi Seyirler!

Teknik Detaylar

Kod :
General
Unique ID                                : 24939146410653377835866210657770231169 (0x12C31AD9CEA1E70D9367DCD68ED95581)
Complete name                            : /home/TheSteel/Desktop/1/Barb.ve.Star.Tatilde.2021.BDRip.XViD.TR.Filmbol.avi
Format                                   : Matroska
Format version                           : Version 4
File size                                : 1.22 GiB
Duration                                 : 1 h 46 min
Overall bit rate                         : 1 638 kb/s
Movie name                               : Barb and Star Go to Vista Del Mar - Barb ve Star Tatilde - 2021 | Filmbol.org
Encoded date                             : UTC 2021-06-25 12:47:44
Writing application                      : mkvmerge v31.0.0 ('Dolores In A Shoestand') 64-bit
Writing library                          : libebml v1.3.6 + libmatroska v1.4.9
FileExtension_Invalid                    : mkv mk3d mka mks

Video
ID                                       : 1
Format                                   : MPEG-4 Visual
Format profile                           : Advanced [email protected]
Format settings                          : BVOP1 / Custom Matrix
Format settings, BVOP                    : 1
Format settings, QPel                    : No
Format settings, GMC                     : No warppoints
Format settings, Matrix                  : Custom
Codec ID                                 : V_MS/VFW/FOURCC / XVID
Codec ID/Hint                            : XviD
Duration                                 : 1 h 46 min
Bit rate                                 : 1 508 kb/s
Width                                    : 720 pixels
Height                                   : 304 pixels
Display aspect ratio                     : 2.35:1
Frame rate mode                          : Constant
Frame rate                               : 23.976 (23976/1000) FPS
Color space                              : YUV
Chroma subsampling                       : 4:2:0
Bit depth                                : 8 bits
Scan type                                : Progressive
Compression mode                         : Lossy
Bits/(Pixel*Frame)                       : 0.287
Stream size                              : 1.13 GiB (92%)
Title                                    : Barb and Star Go to Vista Del Mar - Barb ve Star Tatilde - 2021 | Filmbol.org
Writing library                          : XviD 73
Default                                  : Yes
Forced                                   : No

Audio
ID                                       : 2
Format                                   : MPEG Audio
Format version                           : Version 1
Format profile                           : Layer 3
Format settings                          : Joint stereo / MS Stereo
Codec ID                                 : A_MPEG/L3
Codec ID/Hint                            : MP3
Duration                                 : 1 h 46 min
Bit rate mode                            : Constant
Bit rate                                 : 128 kb/s
Channel(s)                               : 2 channels
Sampling rate                            : 48.0 kHz
Frame rate                               : 41.667 FPS (1152 SPF)
Compression mode                         : Lossy
Stream size                              : 98.0 MiB (8%)
Title                                    : Barb and Star Go to Vista Del Mar - Barb ve Star Tatilde - 2021 | Filmbol.org
Writing library                          : LAME3.99.5
Default                                  : Yes
Forced                                   : No

Film Detayları


 Barb ve Star Tatilde

 Barb ve Star Tatilde

 Barb ve Star Tatilde


Film Fragmanı


Film Detayları



Zip Şifresi: filmbol.org Aşağıdaki butona tıklayarak kopyalabilirsiniz.



Uptobox ile indir

1Fichier ile indir

1Fichier'den İndiremiyor musun? Tıklayın!





Filmbol Cloud

Bunun için üzgünüz ancak, bu linke sadece premium üyeler erişebilir.




WWW


Hızlı Menü: