Filmbol Forum Film İndir BRRip XviD v Ben, Robot (I, Robot) - 2004 - TR - BRRip XviD | tt0343818
Bildirimi Kapat
Merhaba , site giderlerini bir nebze olsun karşılamak adına link kısaltma servisleri kullanmaya başladık. İndirme linkleri sizi ouo.io adresinde yönlendirecek, 3 saniye geçtikten sonra Get Link butonuna tıklayarak linke ulaşacaksınız. Premium üyeler bu durumdan etkilenmeyecektir.


Premium Üyelik Al

Ben, Robot (I, Robot) - 2004 - TR - BRRip XviD | tt0343818
TheSteeL
Ben, Robot (I, Robot) - 2004 - TR - BRRip XviD | tt0343818
2
78
  • Derecelendirme: 0/5 - 0 oy
  • 1
  • 2
  • 3
  • 4
  • 5
Konuyu Okuyanlar:1 Ziyaretçi
Şuan Online!
Filmin Yayınlanma Tarihi: 2004 
Şuan Online!
TheSteeL Chief Executive Officer
******
CEO


 Ben, Robot



Yıl 2035. İnsanlık için robot sevdası devam etmiş ve sonunda tüm işleri robotlara vermişlerdir. Artık robotlar polis, çiftçi, aşçı ve insanların eli kolu haline gelmiştir. Bu durumun ise bazı dezavantajları olacağını düşünen insan sayısı da azımsanamayacak düzeydedir. Del Spooner ise yine bu insanlardan birisidir. Robotlara asla güvenmeyen ve onların sonunda insanlara karşı savaş açacağını düşünen bir adamdır. Bu kadar zeki bir hâl alan robotlardan da böyle bir şey beklemek delilik olmazdı. Zaman ilerledikçe Spooner'in düşünceleri gerçek olmaya başlar ve robotlar bir araya gelerek insanlara isyan etmeye başlar ve savaş ilan ederler. İnsanlığın kaderi ise Del Spooner gibi önceden robotlara karşı önlem alan kişilere kalmıştır...

Ben, Robot (2004) (I, Robot) | tt0343818 Filmi Imdb'den 507000 kişi tarafından oylandı ve 7,1 puan aldı. Bu film için editör puanı %84 olarak belirlendi. İyi Seyirler!

Teknik Detaylar

Kod :
General
Unique ID                                : 63679103088151736298502274965558394603 (0x2FE8262E7E14BFDF2A88013BE315FEEB)
Complete name                            : /home/TheSteel/Desktop/2/Ben.Robot.2004.BRRip.Xvid.TR.Filmbol.avi
Format                                  : Matroska
Format version                          : Version 4
File size                                : 697 MiB
Duration                                : 1 h 54 min
Overall bit rate                        : 850 kb/s
Movie name                              : I,Robot - Ben, Robot - 2004 | Filmbol.org
Encoded date                            : UTC 2021-06-25 13:23:47
Writing application                      : mkvmerge v31.0.0 ('Dolores In A Shoestand') 64-bit
Writing library                          : libebml v1.3.6 + libmatroska v1.4.9
FileExtension_Invalid                    : mkv mk3d mka mks

Video
ID                                      : 1
Format                                  : MPEG-4 Visual
Format profile                          : Advanced [email protected]
Format settings                          : BVOP2 / Custom Matrix
Format settings, BVOP                    : 2
Format settings, QPel                    : No
Format settings, GMC                    : No warppoints
Format settings, Matrix                  : Custom
Muxing mode                              : Packed bitstream
Codec ID                                : V_MS/VFW/FOURCC / XVID
Codec ID/Hint                            : XviD
Duration                                : 1 h 54 min
Bit rate                                : 720 kb/s
Width                                    : 672 pixels
Height                                  : 288 pixels
Display aspect ratio                    : 2.35:1
Frame rate mode                          : Constant
Frame rate                              : 23.976 (24000/1001) FPS
Color space                              : YUV
Chroma subsampling                      : 4:2:0
Bit depth                                : 8 bits
Scan type                                : Progressive
Compression mode                        : Lossy
Bits/(Pixel*Frame)                      : 0.155
Stream size                              : 591 MiB (85%)
Title                                    : I,Robot - Ben, Robot - 2004 | Filmbol.org
Writing library                          : XviD 1.1.2 (UTC 2006-11-01)
Default                                  : Yes
Forced                                  : No

Audio
ID                                      : 2
Format                                  : MPEG Audio
Format version                          : Version 1
Format profile                          : Layer 3
Format settings                          : Joint stereo / MS Stereo
Codec ID                                : A_MPEG/L3
Codec ID/Hint                            : MP3
Duration                                : 1 h 54 min
Bit rate mode                            : Constant
Bit rate                                : 128 kb/s
Channel(s)                              : 2 channels
Sampling rate                            : 48.0 kHz
Frame rate                              : 41.667 FPS (1152 SPF)
Compression mode                        : Lossy
Delay relative to video                  : 720 ms
Stream size                              : 105 MiB (15%)
Title                                    : I,Robot - Ben, Robot - 2004 | Filmbol.org
Default                                  : Yes
Forced                                  : No

Film Detayları


 Ben, Robot

 Ben, Robot

 Ben, Robot


Film Fragmanı


Film Detayları



Zip Şifresi: filmbol.org Aşağıdaki butona tıklayarak kopyalabilirsiniz.



Uptobox ile indir

1Fichier ile indir

1Fichier'den İndiremiyor musun? Tıklayın!





Filmbol Cloud

Bunun için üzgünüz ancak, bu linke sadece premium üyeler erişebilir.




WWW
Şuan Offine!
Şuan Offine!
qurizma Yeni Üye
*
Üye
  • Konular0
  • Mesajlar12
  • Rep puanı 0
Teşekkürler
Şuan Online!
Şuan Online!
TheSteeL Chief Executive Officer
******
CEO
(08-08-2021, Saat: 16:28)qurizma Adlı Kullanıcıdan Alıntı: Teşekkürler
İyi Seyirler


Hızlı Menü: