Filmbol Forum Film İndir 720P v Kırık Kalpler Galerisi (The Broken Hearts Gallery) - 2020 - TR+ORG - 720P | tt2140571
Bildirimi Kapat
Merhaba , site giderlerini bir nebze olsun karşılamak adına link kısaltma servisleri kullanmaya başladık. İndirme linkleri sizi ouo.io adresinde yönlendirecek, 3 saniye geçtikten sonra Get Link butonuna tıklayarak linke ulaşacaksınız. Premium üyeler bu durumdan etkilenmeyecektir.


Premium Üyelik Al

Kırık Kalpler Galerisi (The Broken Hearts Gallery) - 2020 - TR+ORG - 720P | tt2140571
TheSteeL
Kırık Kalpler Galerisi (The Broken Hearts Gallery) - 2020 - TR+ORG - 720P | tt2140571
0
70
  • Derecelendirme: 0/5 - 0 oy
  • 1
  • 2
  • 3
  • 4
  • 5
Konuyu Okuyanlar:2 Ziyaretçi
Şuan Online!
Filmin Yayınlanma Tarihi: 2020 
Şuan Online!
TheSteeL Chief Executive Officer
******
CEO


 Kırık Kalpler Galerisi



Lucy ruh ikizini bir türlü bulamamış, bulduklarından en yakını olanları ise reddetmiş yada bir şekilde ayrılmış olan genç bir kadındır. Onun bu durumu bir çok sevgilisi olmasına ve geçmişinde bir çok insan bulunmasına sebep olur. Fakat Lucy'nin dikkat çeken yanı kesinlikle bu değildir. Lucy ayrıldığı her erkek arkadaşından son bir armağan alarak bunlardan koleksiyon yapmaya başlar. İşin sonunda koleksiyonuna baktığında devasa bir birikim oluşmuştur. Üstelik her birinin bir geçmişi olduğunu düşündüğün de bunları öylece atmasının yanlış olacağını düşünür. Bu sırada aklına nir fikir gelen Lucy, bu hediyeler ile bir galeri açabileceğini düşünür. Galeriyi açtığında pek bir beklentisi yoktur. Fakat galeri bir anda herkes tarafından duyulmaya ve akın edilmeye başlar...

Kırık Kalpler Galerisi (2020) (The Broken Hearts Gallery) | tt2140571 Filmi Imdb'den 5500 kişi tarafından oylandı ve 6,3 puan aldı. Bu film için editör puanı %70 olarak belirlendi. İyi Seyirler!

Teknik Detaylar

Kod :
General
Unique ID                                : 49976296115238337349521214885519172651 (0x259915A316C658628FD64DE470F8242B)
Complete name                            : /home/TheSteel/Desktop/1/Kirik.Kalpler.Galerisi.2020.720p.BluRay.x264.TR.ENG.Filmbol.mkv
Format                                   : Matroska
Format version                           : Version 4
File size                                : 1.17 GiB
Duration                                 : 1 h 48 min
Overall bit rate                         : 1 536 kb/s
Movie name                               : The Broken Hearts Gallery - Kırık Kalpler Galerisi - 2020 | Filmbol.org
Encoded date                             : UTC 2021-06-24 20:39:53
Writing application                      : mkvmerge v31.0.0 ('Dolores In A Shoestand') 64-bit
Writing library                          : libebml v1.3.6 + libmatroska v1.4.9

Video
ID                                       : 1
Format                                   : AVC
Format/Info                              : Advanced Video Codec
Format profile                           : [email protected]
Format settings                          : CABAC / 4 Ref Frames
Format settings, CABAC                   : Yes
Format settings, Reference frames        : 4 frames
Codec ID                                 : V_MPEG4/ISO/AVC
Duration                                 : 1 h 48 min
Bit rate                                 : 1 150 kb/s
Width                                    : 1 280 pixels
Height                                   : 640 pixels
Display aspect ratio                     : 2.000
Frame rate mode                          : Constant
Frame rate                               : 23.976 (24000/1001) FPS
Color space                              : YUV
Chroma subsampling                       : 4:2:0
Bit depth                                : 8 bits
Scan type                                : Progressive
Bits/(Pixel*Frame)                       : 0.059
Stream size                              : 895 MiB (75%)
Title                                    : The Broken Hearts Gallery - Kırık Kalpler Galerisi - 2020 | Filmbol.org
Writing library                          : x264 core 158
Encoding settings                        : cabac=1 / ref=4 / deblock=1:-1:-1 / analyse=0x3:0x133 / me=umh / subme=9 / psy=1 / psy_rd=1.00:0.15 / mixed_ref=1 / me_range=24 / chroma_me=1 / trellis=2 / 8x8dct=1 / cqm=0 / deadzone=21,11 / fast_pskip=0 / chroma_qp_offset=-3 / threads=18 / lookahead_threads=1 / sliced_threads=0 / nr=0 / decimate=1 / interlaced=0 / bluray_compat=0 / constrained_intra=0 / bframes=3 / b_pyramid=2 / b_adapt=2 / b_bias=0 / direct=3 / weightb=1 / open_gop=0 / weightp=2 / keyint=250 / keyint_min=23 / scenecut=40 / intra_refresh=0 / rc_lookahead=60 / rc=2pass / mbtree=1 / bitrate=1150 / ratetol=1.0 / qcomp=0.60 / qpmin=0 / qpmax=69 / qpstep=4 / cplxblur=20.0 / qblur=0.5 / vbv_maxrate=31250 / vbv_bufsize=31250 / nal_hrd=none / filler=0 / ip_ratio=1.40 / aq=1:1.00
Default                                  : Yes
Forced                                   : No

Audio #1
ID                                       : 2
Format                                   : AC-3
Format/Info                              : Audio Coding 3
Commercial name                          : Dolby Digital
Codec ID                                 : A_AC3
Duration                                 : 1 h 48 min
Bit rate mode                            : Constant
Bit rate                                 : 192 kb/s
Channel(s)                               : 2 channels
Channel layout                           : L R
Sampling rate                            : 48.0 kHz
Frame rate                               : 31.250 FPS (1536 SPF)
Compression mode                         : Lossy
Stream size                              : 150 MiB (12%)
Title                                    : The Broken Hearts Gallery - Kırık Kalpler Galerisi - 2020 | Filmbol.org
Language                                 : Turkish
Service kind                             : Complete Main
Default                                  : Yes
Forced                                   : No

Audio #2
ID                                       : 3
Format                                   : AC-3
Format/Info                              : Audio Coding 3
Commercial name                          : Dolby Digital
Codec ID                                 : A_AC3
Duration                                 : 1 h 48 min
Bit rate mode                            : Constant
Bit rate                                 : 192 kb/s
Channel(s)                               : 2 channels
Channel layout                           : L R
Sampling rate                            : 48.0 kHz
Frame rate                               : 31.250 FPS (1536 SPF)
Compression mode                         : Lossy
Stream size                              : 150 MiB (12%)
Title                                    : The Broken Hearts Gallery - Kırık Kalpler Galerisi - 2020 | Filmbol.org
Language                                 : English
Service kind                             : Complete Main
Default                                  : No
Forced                                   : No

Text
ID                                       : 4
Format                                   : UTF-8
Codec ID                                 : S_TEXT/UTF8
Codec ID/Info                            : UTF-8 Plain Text
Duration                                 : 1 h 47 min
Bit rate                                 : 73 b/s
Count of elements                        : 1673
Stream size                              : 58.3 KiB (0%)
Title                                    : The Broken Hearts Gallery - Kırık Kalpler Galerisi - 2020 | Filmbol.org
Language                                 : Turkish
Default                                  : No
Forced                                   : No

Film Detayları


 Kırık Kalpler Galerisi

 Kırık Kalpler Galerisi

 Kırık Kalpler Galerisi


Film Fragmanı


Film Detayları



Zip Şifresi: filmbol.org Aşağıdaki butona tıklayarak kopyalabilirsiniz.


Uptobox ile indir

1Fichier ile indir

1Fichier'den İndiremiyor musun? Tıklayın!





Filmbol Cloud

Bunun için üzgünüz ancak, bu linke sadece premium üyeler erişebilir.




WWW


Hızlı Menü: