Filmbol Forum Film İndir FHD - FULL HD v Climax - 2018 - TR+ORG - FHD - x264 | tt8359848
Bildirimi Kapat
Merhaba , site giderlerini bir nebze olsun karşılamak adına link kısaltma servisleri kullanmaya başladık. İndirme linkleri sizi ouo.io adresinde yönlendirecek, 3 saniye geçtikten sonra Get Link butonuna tıklayarak linke ulaşacaksınız. Premium üyeler bu durumdan etkilenmeyecektir.


Premium Üyelik Al

Climax - 2018 - TR+ORG - FHD - x264 | tt8359848
BroserBros
Climax - 2018 - TR+ORG - FHD - x264 | tt8359848
0
32
  • Derecelendirme: 0/5 - 0 oy
  • 1
  • 2
  • 3
  • 4
  • 5
Konuyu Okuyanlar:1 Ziyaretçi
Şuan Online!
Filmin Yayınlanma Tarihi: 2018 
Şuan Online!
BroserBros Kurucu Admin
*******
Admin


 Climax



Climax, Fransa’daki köhne bir dans kulübünde geçen uzun bir geceyi takip ediyor. 90’ların ortasında 20 dansçı, üç günlük bir prova için ormandaki yatılı bir okulda bir araya gelir. Birbirini yeni tanıyan ekip provalar dışında da eğlenceli vakit geçirirler. Provalar bitmesinin ardından ayrılmadan önce son bir parti düzenlerler. Fakat içkilerin sayısı arttıkça içlerinden bazıları tuhaf davranışlar sergilemeye başlar. Gençler bir süre sonra tamamen kontrollerini kaybeder. Artık onların içine düştükleri girdaba direnmeleri neredeyse imkansızdır. Müzik, dans, gerilim ve cinsellik dolu bu ortamda kimileri cennette olduğunu hissederken kimileri içinse durum cehennemden farksızdır. Filmin yönetmen ve senarsitliğini “Dönüş Yok”, “Boşluk” ve “Aşk” gibi filmlerle tanınan Arjantinli yönetmen Gaspar Noe üstleniyor. Filmin kadrosunda “Kingsman: Gizli Servis” ve “Mumya” filmlerinde izlediğimiz Sofia Boutella’nın yanı sıra Romain Guillermic, Souheila Yacoub, Kiddy Smile, Claude Gajan Maull, Giselle Palmer gibi isimler yer alıyor. Görüntü yönetmenliğini Benoît Debie’nin üstlendiği filmin prömiyeri 71. Cannes Film Festivali’nde gerçekleşti.

Climax (2018) | tt8359848 Filmi Imdb'den 60,000 kişi tarafından oylandı ve 7,0 puan aldı. Bu film için editör puanı %77 olarak belirlendi. İyi Seyirler!

Teknik Detaylar

Kod :
General
Unique ID                                : 227618270515139135656576784197570765993 (0xAB3DAF2EC64D8C63DD11F3D1F1E3A4A9)
Complete name                            : /home/BroserBros/Desktop/4/Climax.2018.FHD.BluRay.x264.TR.ENG.Filmbol.mkv
Format                                   : Matroska
Format version                           : Version 4
File size                                : 6.69 GiB
Duration                                 : 1 h 36 min
Overall bit rate                         : 9 928 kb/s
Movie name                               : Climax - 2018 | Filmbol.org
Encoded date                             : UTC 2021-06-23 09:23:56
Writing application                      : mkvmerge v53.0.0 ('Fool's Gold') 64-bit
Writing library                          : libebml v1.4.1 + libmatroska v1.6.2

Video
ID                                       : 1
Format                                   : AVC
Format/Info                              : Advanced Video Codec
Format profile                           : [email protected]
Format settings                          : CABAC / 5 Ref Frames
Format settings, CABAC                   : Yes
Format settings, Reference frames        : 5 frames
Codec ID                                 : V_MPEG4/ISO/AVC
Duration                                 : 1 h 36 min
Bit rate                                 : 8 228 kb/s
Width                                    : 1 920 pixels
Height                                   : 808 pixels
Display aspect ratio                     : 2.40:1
Frame rate mode                          : Constant
Frame rate                               : 23.976 (23976/1000) FPS
Color space                              : YUV
Chroma subsampling                       : 4:2:0
Bit depth                                : 8 bits
Scan type                                : Progressive
Bits/(Pixel*Frame)                       : 0.221
Stream size                              : 5.54 GiB (83%)
Title                                    : FHD - Filmbol.org
Writing library                          : x264 core 155 r2901 7d0ff22
Encoding settings                        : cabac=1 / ref=5 / deblock=1:0:0 / analyse=0x3:0x113 / me=umh / subme=8 / psy=1 / psy_rd=1.00:0.00 / mixed_ref=1 / me_range=16 / chroma_me=1 / trellis=1 / 8x8dct=1 / cqm=0 / deadzone=21,11 / fast_pskip=1 / chroma_qp_offset=-3 / threads=18 / lookahead_threads=3 / sliced_threads=0 / nr=0 / decimate=1 / interlaced=0 / bluray_compat=0 / constrained_intra=0 / bframes=3 / b_pyramid=2 / b_adapt=2 / b_bias=0 / direct=3 / weightb=1 / open_gop=0 / weightp=2 / keyint=240 / keyint_min=24 / scenecut=40 / intra_refresh=0 / rc_lookahead=50 / rc=2pass / mbtree=1 / bitrate=8228 / ratetol=1.0 / qcomp=0.60 / qpmin=0 / qpmax=69 / qpstep=4 / cplxblur=20.0 / qblur=0.5 / ip_ratio=1.40 / aq=1:1.00
Default                                  : Yes
Forced                                   : No
Color range                              : Limited
Color primaries                          : BT.709
Transfer characteristics                 : BT.709
Matrix coefficients                      : BT.709

Audio #1
ID                                       : 2
Format                                   : AC-3
Format/Info                              : Audio Coding 3
Commercial name                          : Dolby Digital
Codec ID                                 : A_AC3
Duration                                 : 1 h 36 min
Bit rate mode                            : Constant
Bit rate                                 : 192 kb/s
Channel(s)                               : 2 channels
Channel layout                           : L R
Sampling rate                            : 48.0 kHz
Frame rate                               : 31.250 FPS (1536 SPF)
Compression mode                         : Lossy
Stream size                              : 132 MiB (2%)
Title                                    : Türkçe - Filmbol.org
Language                                 : Turkish
Service kind                             : Complete Main
Default                                  : Yes
Forced                                   : No

Audio #2
ID                                       : 3
Format                                   : DTS
Format/Info                              : Digital Theater Systems
Codec ID                                 : A_DTS
Duration                                 : 1 h 36 min
Bit rate mode                            : Constant
Bit rate                                 : 1 509 kb/s
Channel(s)                               : 6 channels
Channel layout                           : C L R Ls Rs LFE
Sampling rate                            : 48.0 kHz
Frame rate                               : 93.750 FPS (512 SPF)
Bit depth                                : 24 bits
Compression mode                         : Lossy
Stream size                              : 1.02 GiB (15%)
Title                                    : Orijinal Dil - Filmbol.org
Language                                 : French
Default                                  : No
Forced                                   : No

Film Detayları


 Climax

 Climax

 Climax


Film Fragmanı


Film Detayları



Zip Şifresi: filmbol.org Aşağıdaki butona tıklayarak kopyalabilirsiniz.





Filmbol Cloud

Bunun için üzgünüz ancak, bu linke sadece premium üyeler erişebilir.




WWW


Hızlı Menü: