Filmbol Forum Film İndir FHD - FULL HD v Soğuk Savaş (Cold War - Zimna Wojna) - 2018 - TR+ORG - FHD - x264 | tt6543652
Bildirimi Kapat
Merhaba , site giderlerini bir nebze olsun karşılamak adına link kısaltma servisleri kullanmaya başladık. İndirme linkleri sizi ouo.io adresinde yönlendirecek, 3 saniye geçtikten sonra Get Link butonuna tıklayarak linke ulaşacaksınız. Premium üyeler bu durumdan etkilenmeyecektir.


Premium Üyelik Al

Soğuk Savaş (Cold War - Zimna Wojna) - 2018 - TR+ORG - FHD - x264 | tt6543652
BroserBros
Soğuk Savaş (Cold War - Zimna Wojna) - 2018 - TR+ORG - FHD - x264 | tt6543652
0
15
  • Derecelendirme: 0/5 - 0 oy
  • 1
  • 2
  • 3
  • 4
  • 5
Konuyu Okuyanlar:2 Ziyaretçi
Şuan Online!
Filmin Yayınlanma Tarihi: 2018 
Şuan Online!
BroserBros Kurucu Admin
*******
Admin


 Soğuk Savaş



Soğuk Savaş, birbirinden tamamen farklı farklı karakterlere sahip bir kadın ve bir erkek arasındaki tutkulu ama imkansız bir aşkın öyküsünü anlatıyor. Zula ve Wiktor birbirinden tamamen farklı karakterlere sahip olan iki aşıktır. Her ne kadar birbirleriyle anlaşamayacak tipler olsalar da kader onların yollarını ayrılmayacak şekilde birbirine bağlar. Soğuk Savaş sırasında Polonya’dan Berlin’e, Yugoslavya’dan Paris’in gece kulüplerine uzanan filmde, siyasi görüş, karakter ve kaderin cilvesiyle savrulan Zula ve Wiktor’un tutkulu aşkı ele alınıyor. Romantik dram filmi Soğuk Savaş’ın yönetmenliğini Ida, Aşk Yazım ve Gizemli Kadın filmlerinin yönetmeni Pawel Pawlikowski üstleniyor. Joanna Kulig, Tomasz Kot, Borys Szyc ve Agata Kulesza gibi isimleri kadrosunda bulunduran film, 2018 Cannes Film Festivali’nden En İyi Yönetmen ödülü ile döndü. San Sebastián ve Toronto gibi uluslararası film festivallerinden de adaylıklar kazanan yapım, Polonya Film Festivali’nden ise 4 ödül birden kazanmayı başardı.

Soğuk Savaş (2018) (Cold War - Zimna Wojna) | tt6543652 Filmi Imdb'den 52,000 kişi tarafından oylandı ve 7,6 puan aldı. Bu film için editör puanı %78 olarak belirlendi. İyi Seyirler!

Teknik Detaylar

Kod :
General
Unique ID                                : 69549965814506866237357423592757056062 (0x3452D60FD92DEC8992C48DA96374D23E)
Complete name                            : /home/BroserBros/Desktop/1/Soğuk.Savaş.2018.FHD.BluRay.x264.TR.ENG.Filmbol.mkv
Format                                   : Matroska
Format version                           : Version 4
File size                                : 13.8 GiB
Duration                                 : 1 h 28 min
Overall bit rate                         : 22.5 Mb/s
Movie name                               : Soğuk Savaş - Cold War - 2018 | Filmbol.org
Encoded date                             : UTC 2021-06-23 08:24:26
Writing application                      : mkvmerge v53.0.0 ('Fool's Gold') 64-bit
Writing library                          : libebml v1.4.1 + libmatroska v1.6.2

Video
ID                                       : 1
Format                                   : AVC
Format/Info                              : Advanced Video Codec
Format profile                           : [email protected]
Format settings                          : CABAC / 4 Ref Frames
Format settings, CABAC                   : Yes
Format settings, Reference frames        : 4 frames
Codec ID                                 : V_MPEG4/ISO/AVC
Duration                                 : 1 h 28 min
Bit rate                                 : 20.8 Mb/s
Width                                    : 1 440 pixels
Height                                   : 1 080 pixels
Display aspect ratio                     : 4:3
Frame rate mode                          : Constant
Frame rate                               : 24.000 FPS
Color space                              : YUV
Chroma subsampling                       : 4:2:0
Bit depth                                : 8 bits
Scan type                                : Progressive
Bits/(Pixel*Frame)                       : 0.558
Stream size                              : 12.8 GiB (92%)
Title                                    : FHD - Filmbol.org
Writing library                          : x264 core 157 r2935 545de2f
Encoding settings                        : cabac=1 / ref=3 / deblock=1:-3:-3 / analyse=0x3:0x113 / me=umh / subme=11 / psy=1 / psy_rd=1.02:0.00 / mixed_ref=1 / me_range=64 / chroma_me=1 / trellis=2 / 8x8dct=1 / cqm=0 / deadzone=21,11 / fast_pskip=0 / chroma_qp_offset=-2 / threads=34 / lookahead_threads=8 / sliced_threads=0 / nr=0 / decimate=0 / interlaced=0 / bluray_compat=0 / constrained_intra=0 / bframes=12 / b_pyramid=2 / b_adapt=2 / b_bias=0 / direct=3 / weightb=1 / open_gop=0 / weightp=2 / keyint=250 / keyint_min=24 / scenecut=40 / intra_refresh=0 / rc_lookahead=250 / rc=crf / mbtree=0 / crf=17.0 / qcomp=0.65 / qpmin=0 / qpmax=69 / qpstep=4 / vbv_maxrate=62500 / vbv_bufsize=78125 / crf_max=0.0 / nal_hrd=none / filler=0 / ip_ratio=1.30 / pb_ratio=1.20 / aq=3:0.65
Default                                  : Yes
Forced                                   : No
Color range                              : Limited
Color primaries                          : BT.709
Matrix coefficients                      : BT.709

Audio #1
ID                                       : 2
Format                                   : AC-3
Format/Info                              : Audio Coding 3
Commercial name                          : Dolby Digital
Codec ID                                 : A_AC3
Duration                                 : 1 h 23 min
Bit rate mode                            : Constant
Bit rate                                 : 192 kb/s
Channel(s)                               : 2 channels
Channel layout                           : L R
Sampling rate                            : 48.0 kHz
Frame rate                               : 31.250 FPS (1536 SPF)
Compression mode                         : Lossy
Stream size                              : 114 MiB (1%)
Title                                    : Türkçe - Filmbol.org
Language                                 : Turkish
Service kind                             : Complete Main
Default                                  : Yes
Forced                                   : No

Audio #2
ID                                       : 3
Format                                   : DTS
Format/Info                              : Digital Theater Systems
Codec ID                                 : A_DTS
Duration                                 : 1 h 28 min
Bit rate mode                            : Constant
Bit rate                                 : 1 509 kb/s
Channel(s)                               : 6 channels
Channel layout                           : C L R Ls Rs LFE
Sampling rate                            : 48.0 kHz
Frame rate                               : 93.750 FPS (512 SPF)
Bit depth                                : 24 bits
Compression mode                         : Lossy
Stream size                              : 950 MiB (7%)
Title                                    : Orijinal Dil - Filmbol.org
Language                                 : English
Default                                  : No
Forced                                   : No

Film Detayları


 Soğuk Savaş

 Soğuk Savaş

 Soğuk Savaş


Film Fragmanı


Film Detayları



Zip Şifresi: filmbol.org Aşağıdaki butona tıklayarak kopyalabilirsiniz.





Filmbol Cloud

Bunun için üzgünüz ancak, bu linke sadece premium üyeler erişebilir.




WWW


Hızlı Menü: