Filmbol Forum Film İndir FHD - FULL HD v Sarı Gül (Yellow Rose) - 2019 - TR+ORG - FHD - x264 | tt6862538
Bildirimi Kapat
Merhaba , site giderlerini bir nebze olsun karşılamak adına link kısaltma servisleri kullanmaya başladık. İndirme linkleri sizi ouo.io adresinde yönlendirecek, 3 saniye geçtikten sonra Get Link butonuna tıklayarak linke ulaşacaksınız. Premium üyeler bu durumdan etkilenmeyecektir.


Premium Üyelik Al

Sarı Gül (Yellow Rose) - 2019 - TR+ORG - FHD - x264 | tt6862538
TheSteeL
Sarı Gül (Yellow Rose) - 2019 - TR+ORG - FHD - x264 | tt6862538
0
17
  • Derecelendirme: 0/5 - 0 oy
  • 1
  • 2
  • 3
  • 4
  • 5
Konuyu Okuyanlar:2 Ziyaretçi
Şuan Online!
Filmin Yayınlanma Tarihi: 2019 
Şuan Online!
TheSteeL Chief Executive Officer
******
CEO


 Sarı Gül



Genç bir kız olan Rose, aslen Filipinlidir ve Amerika'da yaşamaktadır. Fakat Amerika'ya gelişleri biraz sıkıntılı bir süreç olmuştur. Ailesine vize çıkmadığında Rose ve ailesi Amerika'ya gizlice girer. Bu durum başlarda onlara sıkıntı vermese de ilerleyen zamanlarda büyük bir sorun ile karşılaşmalarına neden olur. Annesi devlet tarafından takibe alınmıştır ve sonunda kaçak olarak yakalanır. Sınır dışı edilme ihtimali söz konusu olduğunda Rose önemli bir karar vermek zorundadır. Amerikan hükûmeti yaşından dolayı ona vize verebilmektedir ancak annesi için aynı durum söz konusu değildir. Şimdi Rose'nin büyük bir karar verme anı yaklaşmaktadır. Annesi ile gidip eski hayatına devam mı edecektir yoksa devletin ona verdiği vizeyi kullanıp burada yeni bir hayat mı kuracaktır...

Sarı Gül (2019) (Yellow Rose) | tt6862538 Filmi Imdb'den 1000 kişi tarafından oylandı ve 6,5 puan aldı. Bu film için editör puanı %70 olarak belirlendi. İyi Seyirler!

Teknik Detaylar

Kod :
General
Unique ID                                : 307862104399160344182173653053229735790 (0xE79C15A5C0C99C0C5CA53C9C88039F6E)
Complete name                            : /home/TheSteel/Desktop/4/Sarı.Gul.2019.FHD.WEB-DL.x264.TR.ENG.Filmbol.mkv
Format                                   : Matroska
Format version                           : Version 4
File size                                : 3.42 GiB
Duration                                 : 1 h 34 min
Overall bit rate                         : 5 185 kb/s
Movie name                               : Yellow Rose - Sarı Gül - 2019 | Filmbol.org
Encoded date                             : UTC 2021-06-17 13:30:10
Writing application                      : mkvmerge v31.0.0 ('Dolores In A Shoestand') 64-bit
Writing library                          : libebml v1.3.6 + libmatroska v1.4.9

Video
ID                                       : 1
Format                                   : AVC
Format/Info                              : Advanced Video Codec
Format profile                           : [email protected]
Format settings                          : CABAC / 5 Ref Frames
Format settings, CABAC                   : Yes
Format settings, Reference frames        : 5 frames
Codec ID                                 : V_MPEG4/ISO/AVC
Duration                                 : 1 h 34 min
Bit rate                                 : 4 607 kb/s
Width                                    : 1 920 pixels
Height                                   : 790 pixels
Display aspect ratio                     : 2.40:1
Frame rate mode                          : Constant
Frame rate                               : 23.976 FPS
Color space                              : YUV
Chroma subsampling                       : 4:2:0
Bit depth                                : 8 bits
Scan type                                : Progressive
Bits/(Pixel*Frame)                       : 0.127
Stream size                              : 3.04 GiB (89%)
Title                                    : Yellow Rose - Sarı Gül - 2019 | Filmbol.org
Language                                 : English
Default                                  : Yes
Forced                                   : No
Color range                              : Limited
Color primaries                          : BT.709
Transfer characteristics                 : BT.709
Matrix coefficients                      : BT.709

Audio #1
ID                                       : 2
Format                                   : AC-3
Format/Info                              : Audio Coding 3
Commercial name                          : Dolby Digital
Codec ID                                 : A_AC3
Duration                                 : 1 h 34 min
Bit rate mode                            : Constant
Bit rate                                 : 192 kb/s
Channel(s)                               : 2 channels
Channel layout                           : L R
Sampling rate                            : 48.0 kHz
Frame rate                               : 31.250 FPS (1536 SPF)
Compression mode                         : Lossy
Delay relative to video                  : -42 ms
Stream size                              : 130 MiB (4%)
Title                                    : Yellow Rose - Sarı Gül - 2019 | Filmbol.org
Language                                 : Turkish
Service kind                             : Complete Main
Default                                  : Yes
Forced                                   : No

Audio #2
ID                                       : 3
Format                                   : AC-3
Format/Info                              : Audio Coding 3
Commercial name                          : Dolby Digital
Codec ID                                 : A_AC3
Duration                                 : 1 h 34 min
Bit rate mode                            : Constant
Bit rate                                 : 384 kb/s
Channel(s)                               : 6 channels
Channel layout                           : L R C LFE Ls Rs
Sampling rate                            : 48.0 kHz
Frame rate                               : 31.250 FPS (1536 SPF)
Compression mode                         : Lossy
Delay relative to video                  : -42 ms
Stream size                              : 259 MiB (7%)
Title                                    : Yellow Rose - Sarı Gül - 2019 | Filmbol.org
Language                                 : English
Service kind                             : Complete Main
Default                                  : No
Forced                                   : No

Text
ID                                       : 4
Format                                   : UTF-8
Codec ID                                 : S_TEXT/UTF8
Codec ID/Info                            : UTF-8 Plain Text
Duration                                 : 1 h 32 min
Bit rate                                 : 44 b/s
Count of elements                        : 1009
Stream size                              : 29.9 KiB (0%)
Title                                    : Yellow Rose - Sarı Gül - 2019 | Filmbol.org
Language                                 : Turkish
Default                                  : No
Forced                                   : No

Film Detayları


 Sarı Gül

 Sarı Gül

 Sarı Gül


Film Fragmanı


Film Detayları



Zip Şifresi: filmbol.org Aşağıdaki butona tıklayarak kopyalabilirsiniz.





Filmbol Cloud

Bunun için üzgünüz ancak, bu linke sadece premium üyeler erişebilir.




WWW


Hızlı Menü: