Filmbol Forum Film İndir BRRip XviD v Sarı Gül (Yellow Rose) - 2019 - TR - BRRip XviD | tt6862538
Bildirimi Kapat
Merhaba , site giderlerini bir nebze olsun karşılamak adına link kısaltma servisleri kullanmaya başladık. İndirme linkleri sizi ouo.io adresinde yönlendirecek, 3 saniye geçtikten sonra Get Link butonuna tıklayarak linke ulaşacaksınız. Premium üyeler bu durumdan etkilenmeyecektir.


Premium Üyelik Al

Sarı Gül (Yellow Rose) - 2019 - TR - BRRip XviD | tt6862538
TheSteeL
Sarı Gül (Yellow Rose) - 2019 - TR - BRRip XviD | tt6862538
0
20
  • Derecelendirme: 0/5 - 0 oy
  • 1
  • 2
  • 3
  • 4
  • 5
Konuyu Okuyanlar:1 Ziyaretçi
Şuan Online!
Filmin Yayınlanma Tarihi: 2019 
Şuan Online!
TheSteeL Chief Executive Officer
******
CEO


 Sarı Gül



Genç bir kız olan Rose, aslen Filipinlidir ve Amerika'da yaşamaktadır. Fakat Amerika'ya gelişleri biraz sıkıntılı bir süreç olmuştur. Ailesine vize çıkmadığında Rose ve ailesi Amerika'ya gizlice girer. Bu durum başlarda onlara sıkıntı vermese de ilerleyen zamanlarda büyük bir sorun ile karşılaşmalarına neden olur. Annesi devlet tarafından takibe alınmıştır ve sonunda kaçak olarak yakalanır. Sınır dışı edilme ihtimali söz konusu olduğunda Rose önemli bir karar vermek zorundadır. Amerikan hükûmeti yaşından dolayı ona vize verebilmektedir ancak annesi için aynı durum söz konusu değildir. Şimdi Rose'nin büyük bir karar verme anı yaklaşmaktadır. Annesi ile gidip eski hayatına devam mı edecektir yoksa devletin ona verdiği vizeyi kullanıp burada yeni bir hayat mı kuracaktır...

Sarı Gül (2019) (Yellow Rose) | tt6862538 Filmi Imdb'den 1000 kişi tarafından oylandı ve 6,5 puan aldı. Bu film için editör puanı %70 olarak belirlendi. İyi Seyirler!

Teknik Detaylar

Kod :
General
Unique ID                                : 266686927919816025424407111847809853244 (0xC8A208B5E9368EFA1F4F3AB153CF273C)
Complete name                            : /home/TheSteel/Desktop/4/Sarı.Gul.2019.HDRip.XViD.TR.Filmbol.avi
Format                                   : Matroska
Format version                           : Version 4
File size                                : 890 MiB
Duration                                 : 1 h 34 min
Overall bit rate                         : 1 318 kb/s
Movie name                               : Yellow Rose - Sarı Gül - 2019 | Filmbol.org
Encoded date                             : UTC 2021-06-17 13:28:17
Writing application                      : mkvmerge v31.0.0 ('Dolores In A Shoestand') 64-bit
Writing library                          : libebml v1.3.6 + libmatroska v1.4.9
FileExtension_Invalid                    : mkv mk3d mka mks

Video
ID                                       : 1
Format                                   : MPEG-4 Visual
Format profile                           : Advanced [email protected]
Format settings                          : BVOP1
Format settings, BVOP                    : 1
Format settings, QPel                    : No
Format settings, GMC                     : No warppoints
Format settings, Matrix                  : Default (MPEG)
Muxing mode                              : Packed bitstream
Codec ID                                 : V_MS/VFW/FOURCC / XVID
Codec ID/Hint                            : XviD
Duration                                 : 1 h 34 min
Bit rate                                 : 1 189 kb/s
Width                                    : 720 pixels
Height                                   : 296 pixels
Display aspect ratio                     : 2.40:1
Frame rate mode                          : Constant
Frame rate                               : 23.976 (24000/1001) FPS
Original frame rate                      : 23.976 (23976/1000) FPS
Color space                              : YUV
Chroma subsampling                       : 4:2:0
Bit depth                                : 8 bits
Scan type                                : Progressive
Compression mode                         : Lossy
Bits/(Pixel*Frame)                       : 0.233
Stream size                              : 802 MiB (90%)
Title                                    : Yellow Rose - Sarı Gül - 2019 | Filmbol.org
Writing library                          : XviD 64
Default                                  : Yes
Forced                                   : No

Audio
ID                                       : 2
Format                                   : MPEG Audio
Format version                           : Version 1
Format profile                           : Layer 3
Format settings                          : Joint stereo / MS Stereo
Codec ID                                 : A_MPEG/L3
Codec ID/Hint                            : MP3
Duration                                 : 1 h 34 min
Bit rate mode                            : Constant
Bit rate                                 : 128 kb/s
Channel(s)                               : 2 channels
Sampling rate                            : 48.0 kHz
Frame rate                               : 41.667 FPS (1152 SPF)
Compression mode                         : Lossy
Stream size                              : 86.4 MiB (10%)
Title                                    : Yellow Rose - Sarı Gül - 2019 | Filmbol.org
Writing library                          : LAME3.99.5
Default                                  : Yes
Forced                                   : No

Film Detayları


 Sarı Gül

 Sarı Gül

 Sarı Gül


Film Fragmanı


Film Detayları



Zip Şifresi: filmbol.org Aşağıdaki butona tıklayarak kopyalabilirsiniz.



Uptobox ile indir

1Fichier ile indir

1Fichier'den İndiremiyor musun? Tıklayın!





Filmbol Cloud

Bunun için üzgünüz ancak, bu linke sadece premium üyeler erişebilir.




WWW


Hızlı Menü: