Filmbol Forum Film İndir BRRip XviD v Bir Yılda Yaşam (Life in a Year) - 2020 - TR - BRRip XviD | tt6598238
Bildirimi Kapat
Merhaba , site giderlerini bir nebze olsun karşılamak adına link kısaltma servisleri kullanmaya başladık. İndirme linkleri sizi ouo.io adresinde yönlendirecek, 3 saniye geçtikten sonra Get Link butonuna tıklayarak linke ulaşacaksınız. Premium üyeler bu durumdan etkilenmeyecektir.


Premium Üyelik Al

Bir Yılda Yaşam (Life in a Year) - 2020 - TR - BRRip XviD | tt6598238
BroserBros
Bir Yılda Yaşam (Life in a Year) - 2020 - TR - BRRip XviD | tt6598238
0
23
  • Derecelendirme: 0/5 - 0 oy
  • 1
  • 2
  • 3
  • 4
  • 5
Konuyu Okuyanlar:1 Ziyaretçi
Şuan Online!
Filmin Yayınlanma Tarihi: 2020 
Şuan Online!
BroserBros Kurucu Admin
*******
Admin


 Bir Yılda Yaşam



Kız arkadaşı büyük bir hastalığa yakalanıp sadece 1 yılı kaldığında, bu genç adam onu son kez mutlu edebilmek için herşeyini veriyor. Onunla son kez yemek yermiş gibi yemek yiyor ve son kez veda edermiş gibi her gün veda ediyor. Zamanla aslında kız arkadaşına veda etmeyi kabul edemeyeceğini ve bu yüzden ona hayatının tamamını bir yılda vermek istiyor...

Bir Yılda Yaşam (2020) (Life in a Year) | tt6598238 Filmi Imdb'den 6,000 kişi tarafından oylandı ve 6,1 puan aldı. Bu film için editör puanı %69 olarak belirlendi. İyi Seyirler!

Teknik Detaylar

Kod :
General
Unique ID                                : 307413023236204804300668238989472526232 (0xE745983C96E605219F2470A94C436F98)
Complete name                            : /home/TheSteel/Desktop/1/Bir.Yılda.Yasam.2020.HDRip.XViD.TR.Filmbol.avi
Format                                   : Matroska
Format version                           : Version 4
File size                                : 1.09 GiB
Duration                                 : 1 h 47 min
Overall bit rate                         : 1 455 kb/s
Movie name                               : Life in a Year - 2020 | Filmbol.org
Encoded date                             : UTC 2021-06-16 12:16:32
Writing application                      : mkvmerge v31.0.0 ('Dolores In A Shoestand') 64-bit
Writing library                          : libebml v1.3.6 + libmatroska v1.4.9
FileExtension_Invalid                    : mkv mk3d mka mks

Video
ID                                       : 1
Format                                   : MPEG-4 Visual
Format profile                           : Advanced [email protected]
Format settings                          : BVOP2
Format settings, BVOP                    : 2
Format settings, QPel                    : No
Format settings, GMC                     : No warppoints
Format settings, Matrix                  : Default (MPEG)
Muxing mode                              : Packed bitstream
Codec ID                                 : V_MS/VFW/FOURCC / XVID
Codec ID/Hint                            : XviD
Duration                                 : 1 h 47 min
Bit rate                                 : 1 325 kb/s
Width                                    : 720 pixels
Height                                   : 300 pixels
Display aspect ratio                     : 2.40:1
Frame rate mode                          : Constant
Frame rate                               : 23.976 (24000/1001) FPS
Original frame rate                      : 23.976 (23976/1000) FPS
Color space                              : YUV
Chroma subsampling                       : 4:2:0
Bit depth                                : 8 bits
Scan type                                : Progressive
Compression mode                         : Lossy
Bits/(Pixel*Frame)                       : 0.256
Stream size                              : 1 018 MiB (91%)
Title                                    : Life in a Year - 2020 | Filmbol.org
Writing library                          : XviD 64
Default                                  : Yes
Forced                                   : No

Audio
ID                                       : 2
Format                                   : MPEG Audio
Format version                           : Version 1
Format profile                           : Layer 3
Format settings                          : Joint stereo / MS Stereo
Codec ID                                 : A_MPEG/L3
Codec ID/Hint                            : MP3
Duration                                 : 1 h 47 min
Bit rate mode                            : Constant
Bit rate                                 : 128 kb/s
Channel(s)                               : 2 channels
Sampling rate                            : 48.0 kHz
Frame rate                               : 41.667 FPS (1152 SPF)
Compression mode                         : Lossy
Stream size                              : 98.3 MiB (9%)
Title                                    : Life in a Year - 2020 | Filmbol.org
Writing library                          : LAME3.99.5
Default                                  : Yes
Forced                                   : No

Film Detayları


 Bir Yılda Yaşam

 Bir Yılda Yaşam

 Bir Yılda Yaşam


Film Fragmanı


Film Detayları



Zip Şifresi: filmbol.org Aşağıdaki butona tıklayarak kopyalabilirsiniz.



Uptobox ile indir

1Fichier ile indir

1Fichier'den İndiremiyor musun? Tıklayın!





Filmbol Cloud

Bunun için üzgünüz ancak, bu linke sadece premium üyeler erişebilir.




WWW


Hızlı Menü: