Filmbol Forum Film İndir UHD - ULTRA HD - 4K v Dünya Savaşı Z (World War Z) - 2013 - TR+ORG - UHD (4K) - 10Bit-x265 | tt0816711
Bildirimi Kapat
Merhaba , site giderlerini bir nebze olsun karşılamak adına link kısaltma servisleri kullanmaya başladık. İndirme linkleri sizi ouo.io adresinde yönlendirecek, 3 saniye geçtikten sonra Get Link butonuna tıklayarak linke ulaşacaksınız. Premium üyeler bu durumdan etkilenmeyecektir.


Premium Üyelik Al

Dünya Savaşı Z (World War Z) - 2013 - TR+ORG - UHD (4K) - 10Bit-x265 | tt0816711
TheSteeL
Dünya Savaşı Z (World War Z) - 2013 - TR+ORG - UHD (4K) - 10Bit-x265 | tt0816711
6
472
  • Derecelendirme: 0/5 - 0 oy
  • 1
  • 2
  • 3
  • 4
  • 5
Konuyu Okuyanlar:2 Ziyaretçi
Şuan Online!
Filmin Yayınlanma Tarihi: 2013 
Şuan Online!
TheSteeL Chief Executive Officer
******
CEO


 Dünya Savaşı Z



Zombilerin yavaş, beyni olmayan ve gelişi güzel hareket eden varlıklar olduğu hayal edilse de, Dünya Savaşı Z filminde işleyiş bambaşka devam ediyor. Bir virüs yayılır ve bu virüse yakalanan herkes hiç bir tedavi veya kurtuluş olmadan zombiye dönüşmeye başlar. Zombiler çok hızlı hareket edebilir ve insanlara resmen savaş ilan eder. Amaçları insanları yemekten çok insan ırkının sonunu getirmek olduğundan, virüsten enfekte olmayan insanlara ırkı korumak için çok büyük bir görev düşmektedir...

Dünya Savaşı Z (2013) (World War Z) | tt0816711 Filmi Imdb'den 615000 kişi tarafından oylandı ve 7,0 puan aldı. Bu film için editör puanı %83 olarak belirlendi. İyi Seyirler!

Teknik Detaylar

Kod :
General
Unique ID                                : 10313081912037397841077415186235843236 (0x7C23A321FBCA5060E15FD09CE72E2A4)
Complete name                            : /home/TheSteel/Desktop/1/Dunya.Savasi.Z.2013.2160p.4K.BluRay.x265.10Bit.HDR.HEVC.TR.ENG.Filmbol.mkv
Format                                   : Matroska
Format version                           : Version 4
File size                                : 5.69 GiB
Duration                                 : 1 h 56 min
Overall bit rate                         : 7 025 kb/s
Movie name                               : World War Z - Dünya Savaşı Z - 2013 | Filmbol.org
Encoded date                             : UTC 2021-06-17 10:05:18
Writing application                      : mkvmerge v31.0.0 ('Dolores In A Shoestand') 64-bit
Writing library                          : libebml v1.3.6 + libmatroska v1.4.9

Video
ID                                       : 1
Format                                   : HEVC
Format/Info                              : High Efficiency Video Coding
Format profile                           : Main [email protected]@Main
Codec ID                                 : V_MPEGH/ISO/HEVC
Duration                                 : 1 h 56 min
Bit rate                                 : 6 000 kb/s
Width                                    : 3 840 pixels
Height                                   : 2 160 pixels
Display aspect ratio                     : 16:9
Frame rate mode                          : Constant
Frame rate                               : 23.976 (24000/1001) FPS
Color space                              : YUV
Chroma subsampling                       : 4:2:0
Bit depth                                : 10 bits
Bits/(Pixel*Frame)                       : 0.030
Stream size                              : 4.86 GiB (85%)
Title                                    : 4K - Filmbol.org
Writing library                          : x265 3.3+31-d5695e28999e:[Linux][GCC 7.5.0][64 bit] 10bit
Encoding settings                        : cpuid=1111039 / frame-threads=3 / wpp / no-pmode / no-pme / no-psnr / no-ssim / log-level=2 / input-csp=1 / input-res=3840x2160 / interlace=0 / total-frames=0 / level-idc=0 / high-tier=1 / uhd-bd=0 / ref=4 / no-allow-non-conformance / no-repeat-headers / annexb / no-aud / no-hrd / info / hash=0 / no-temporal-layers / open-gop / min-keyint=23 / keyint=250 / gop-lookahead=0 / bframes=4 / b-adapt=2 / b-pyramid / bframe-bias=0 / rc-lookahead=25 / lookahead-slices=4 / scenecut=40 / hist-scenecut=0 / radl=0 / no-splice / no-intra-refresh / ctu=64 / min-cu-size=8 / rect / no-amp / max-tu-size=32 / tu-inter-depth=1 / tu-intra-depth=1 / limit-tu=0 / rdoq-level=2 / dynamic-rd=0.00 / no-ssim-rd / signhide / no-tskip / nr-intra=0 / nr-inter=0 / no-constrained-intra / strong-intra-smoothing / max-merge=3 / limit-refs=3 / limit-modes / me=3 / subme=3 / merange=57 / temporal-mvp / no-frame-dup / no-hme / weightp / no-weightb / no-analyze-src-pics / deblock=0:0 / sao / no-sao-non-deblock / rd=4 / selective-sao=4 / no-early-skip / rskip / no-fast-intra / no-tskip-fast / no-cu-lossless / no-b-intra / no-splitrd-skip / rdpenalty=0 / psy-rd=2.00 / psy-rdoq=1.00 / no-rd-refine / no-lossless / cbqpoffs=0 / crqpoffs=0 / rc=abr / bitrate=6000 / qcomp=0.60 / qpstep=4 / stats-write=0 / stats-read=2 / cplxblur=20.0 / qblur=0.5 / ipratio=1.40 / pbratio=1.30 / aq-mode=2 / aq-strength=1.00 / cutree / zone-count=0 / no-strict-cbr / qg-size=32 / no-rc-grain / qpmax=69 / qpmin=0 / no-const-vbv / sar=1 / overscan=0 / videoformat=5 / range=0 / colorprim=2 / transfer=2 / colormatrix=2 / chromaloc=0 / display-window=0 / cll=0,0 / min-luma=0 / max-luma=1023 / log2-max-poc-lsb=8 / vui-timing-info / vui-hrd-info / slices=1 / no-opt-qp-pps / no-opt-ref-list-length-pps / no-multi-pass-opt-rps / scenecut-bias=0.05 / hist-threshold=0.01 / no-opt-cu-delta-qp / no-aq-motion / no-hdr10 / no-hdr10-opt / no-dhdr10-opt / no-idr-recovery-sei / analysis-reuse-level=0 / analysis-save-reuse-level=0 / analysis-load-reuse-level=0 / scale-factor=0 / refine-intra=0 / refine-inter=0 / refine-mv=1 / refine-ctu-distortion=0 / no-limit-sao / ctu-info=0 / no-lowpass-dct / refine-analysis-type=0 / copy-pic=1 / max-ausize-factor=1.0 / no-dynamic-refine / no-single-sei / no-hevc-aq / no-svt / no-field / qp-adaptation-range=1.00 / no-scenecut-aware-qpconformance-window-offsets / right=0 / bottom=0 / decoder-max-rate=0
Default                                  : Yes
Forced                                   : No
Color range                              : Limited

Audio #1
ID                                       : 2
Format                                   : AC-3
Format/Info                              : Audio Coding 3
Commercial name                          : Dolby Digital
Codec ID                                 : A_AC3
Duration                                 : 1 h 56 min
Bit rate mode                            : Constant
Bit rate                                 : 640 kb/s
Channel(s)                               : 6 channels
Channel layout                           : L R C LFE Ls Rs
Sampling rate                            : 48.0 kHz
Frame rate                               : 31.250 FPS (1536 SPF)
Compression mode                         : Lossy
Stream size                              : 531 MiB (9%)
Title                                    : Türkçe - Filmbol.org
Language                                 : Turkish
Service kind                             : Complete Main
Default                                  : Yes
Forced                                   : No

Audio #2
ID                                       : 3
Format                                   : AAC LC
Format/Info                              : Advanced Audio Codec Low Complexity
Codec ID                                 : A_AAC-2
Duration                                 : 1 h 56 min
Bit rate                                 : 384 kb/s
Channel(s)                               : 6 channels
Channel layout                           : C L R Ls Rs LFE
Sampling rate                            : 48.0 kHz
Frame rate                               : 46.875 FPS (1024 SPF)
Compression mode                         : Lossy
Stream size                              : 319 MiB (5%)
Title                                    : Orjinal Dil - Filmbol.org
Language                                 : English
Default                                  : No
Forced                                   : No

Film Detayları


 Dünya Savaşı Z

 Dünya Savaşı Z

 Dünya Savaşı Z


Film Fragmanı


Film Detayları



Zip Şifresi: filmbol.org Aşağıdaki butona tıklayarak kopyalabilirsiniz.





Filmbol Cloud

Bunun için üzgünüz ancak, bu linke sadece premium üyeler erişebilir.




WWW
Şuan Offine!
Şuan Offine!
ogi3 Yeni Üye
*
Üye
  • Konular0
  • Mesajlar4
  • Rep puanı 0
abi bu film 4k nasıl 5.69 gb webmi
Şuan Online!
Şuan Online!
BroserBros Kurucu Admin
*******
Admin
(13-07-2021, Saat: 16:16)ogi3 Adlı Kullanıcıdan Alıntı: abi bu film 4k nasıl 5.69 gb webmi

3840 x 2160, 7000 Bitrate ve HEVC görüntü. Bluray görüntüdür. Teknik Detaylara bakabilirsin.
Şuan Offine!
Şuan Offine!
erennn Yeni Üye
*
Üye
  • Konular0
  • Mesajlar38
  • Rep puanı 0
bakalım
Şuan Online!
Şuan Online!
PuNkDuNk Yeni Üye
*
Üye
  • Konular0
  • Mesajlar9
  • Rep puanı 0
Teşekkür ederim.
Şuan Offine!
Şuan Offine!
nseyhan Yeni Üye
*
Üye
  • Konular0
  • Mesajlar30
  • Rep puanı 0
teşekkürler.
Şuan Offine!
Şuan Offine!
angelord Yeni Üye
*
Üye
  • Konular0
  • Mesajlar101
  • Rep puanı 0
teşekkürler


Hızlı Menü: