Filmbol Forum Film İndir FHD - FULL HD v Kaykaycı Kız (Skater Girl) - 2021 - TR+ORG - FHD - x264 | tt6964940
Bildirimi Kapat
Merhaba , site giderlerini bir nebze olsun karşılamak adına link kısaltma servisleri kullanmaya başladık. İndirme linkleri sizi ouo.io adresinde yönlendirecek, 3 saniye geçtikten sonra Get Link butonuna tıklayarak linke ulaşacaksınız. Premium üyeler bu durumdan etkilenmeyecektir.


Premium Üyelik Al

Kaykaycı Kız (Skater Girl) - 2021 - TR+ORG - FHD - x264 | tt6964940
TheSteeL
Kaykaycı Kız (Skater Girl) - 2021 - TR+ORG - FHD - x264 | tt6964940
3
111
  • Derecelendirme: 0/5 - 0 oy
  • 1
  • 2
  • 3
  • 4
  • 5
Konuyu Okuyanlar:3 Ziyaretçi
Şuan Online!
Filmin Yayınlanma Tarihi: 2021 
Şuan Online!
TheSteeL Chief Executive Officer
******
CEO


 Kaykaycı Kız



Hindistan da, çok da büyük olmayan kırsal bir köyde yaşayan Prerna için hayat çok sıkıcıdır. Bu küçük köyde yapacağı hiç bir şey yoktur ve vaktini nasıl geçireceğini bilemez. Bir süre sonra Prerna'nın karşısına bir kaykay çıkar. Başlarda ne olduğunu çözemesede zamanla kendini eğitir ve geliştirir. Bir süre sonra ise kaykay onun hayatının merkezine oturur. Fakat ailesi kaykay'a karşıdır ve bir kız çocuğunun böyle şeyler yapmaması gerektiğini savunur. Bu durumda Prerna bir yandan ailesini ikna etmek zorunda ve bir yandanda kaykay sürüşünü geliştirmek zorunda kalır ancak bu çok zor bir iştir...

Kaykaycı Kız (2021) (Skater Girl) | tt6964940 Filmi Imdb'den 1500 kişi tarafından oylandı ve 6,6 puan aldı. Bu film için editör puanı %68 olarak belirlendi. İyi Seyirler!

Teknik Detaylar

Kod :
General
Unique ID                                : 82952290445066349699588259679254540009 (0x3E6807AEE3F2A5D88727712999D2EEE9)
Complete name                            : /home/TheSteel/Desktop/1/Kaykaycı.Kız.2021.FHD.WEB-DL.x264.TR.ENG.Filmbol.mkv
Format                                   : Matroska
Format version                           : Version 4
File size                                : 4.01 GiB
Duration                                 : 1 h 49 min
Overall bit rate mode                    : Variable
Overall bit rate                         : 5 227 kb/s
Movie name                               : Skater Girl - Kaykaycı Kız - 2021 | Filmbol.org
Encoded date                             : UTC 2021-06-14 17:05:54
Writing application                      : mkvmerge v31.0.0 ('Dolores In A Shoestand') 64-bit
Writing library                          : libebml v1.3.6 + libmatroska v1.4.9

Video
ID                                       : 1
Format                                   : AVC
Format/Info                              : Advanced Video Codec
Format profile                           : [email protected]
Format settings                          : CABAC / 3 Ref Frames
Format settings, CABAC                   : Yes
Format settings, Reference frames        : 3 frames
Codec ID                                 : V_MPEG4/ISO/AVC
Duration                                 : 1 h 49 min
Bit rate mode                            : Variable
Bit rate                                 : 3 944 kb/s
Nominal bit rate                         : 4 640 kb/s
Maximum bit rate                         : 6 960 kb/s
Width                                    : 1 920 pixels
Height                                   : 1 080 pixels
Display aspect ratio                     : 16:9
Frame rate mode                          : Constant
Frame rate                               : 24.000 FPS
Color space                              : YUV
Chroma subsampling                       : 4:2:0
Bit depth                                : 8 bits
Scan type                                : Progressive
Bits/(Pixel*Frame)                       : 0.079
Stream size                              : 3.03 GiB (75%)
Title                                    : Skater Girl - Kaykaycı Kız - 2021 | Filmbol.org
Writing library                          : x264 core 148 r2722 1b0121b
Encoding settings                        : cabac=1 / ref=3 / deblock=1:0:0 / analyse=0x1:0x111 / me=umh / subme=10 / psy=1 / psy_rd=1.00:0.00 / mixed_ref=1 / me_range=24 / chroma_me=1 / trellis=2 / 8x8dct=0 / cqm=0 / deadzone=21,11 / fast_pskip=1 / chroma_qp_offset=-2 / threads=8 / lookahead_threads=1 / sliced_threads=0 / nr=0 / decimate=1 / interlaced=0 / bluray_compat=0 / stitchable=1 / constrained_intra=0 / bframes=2 / b_pyramid=0 / b_adapt=2 / b_bias=0 / direct=3 / weightb=1 / open_gop=0 / weightp=2 / keyint=250 / keyint_min=24 / scenecut=0 / intra_refresh=0 / rc_lookahead=48 / rc=2pass / mbtree=1 / bitrate=4640 / ratetol=1.0 / qcomp=0.50 / qpmin=6 / qpmax=51 / qpstep=4 / cplxblur=20.0 / qblur=0.5 / vbv_maxrate=6960 / vbv_bufsize=9280 / nal_hrd=vbr / filler=0 / ip_ratio=1.40 / aq=1:1.00
Default                                  : Yes
Forced                                   : No

Audio #1
ID                                       : 2
Format                                   : AC-3
Format/Info                              : Audio Coding 3
Commercial name                          : Dolby Digital
Codec ID                                 : A_AC3
Duration                                 : 1 h 49 min
Bit rate mode                            : Constant
Bit rate                                 : 640 kb/s
Channel(s)                               : 6 channels
Channel layout                           : L R C LFE Ls Rs
Sampling rate                            : 48.0 kHz
Frame rate                               : 31.250 FPS (1536 SPF)
Compression mode                         : Lossy
Stream size                              : 503 MiB (12%)
Title                                    : Skater Girl - Kaykaycı Kız - 2021 | Filmbol.org
Language                                 : Turkish
Service kind                             : Complete Main
Default                                  : Yes
Forced                                   : No

Audio #2
ID                                       : 3
Format                                   : AC-3
Format/Info                              : Audio Coding 3
Commercial name                          : Dolby Digital
Codec ID                                 : A_AC3
Duration                                 : 1 h 49 min
Bit rate mode                            : Constant
Bit rate                                 : 640 kb/s
Channel(s)                               : 6 channels
Channel layout                           : L R C LFE Ls Rs
Sampling rate                            : 48.0 kHz
Frame rate                               : 31.250 FPS (1536 SPF)
Compression mode                         : Lossy
Stream size                              : 503 MiB (12%)
Title                                    : Skater Girl - Kaykaycı Kız - 2021 | Filmbol.org
Language                                 : English
Service kind                             : Complete Main
Default                                  : No
Forced                                   : No

Text #1
ID                                       : 4
Format                                   : UTF-8
Codec ID                                 : S_TEXT/UTF8
Codec ID/Info                            : UTF-8 Plain Text
Duration                                 : 1 h 45 min
Bit rate                                 : 4 b/s
Count of elements                        : 87
Stream size                              : 3.21 KiB (0%)
Title                                    : Skater Girl - Kaykaycı Kız - 2021 | Filmbol.org
Language                                 : Turkish
Default                                  : Yes
Forced                                   : Yes

Text #2
ID                                       : 5
Format                                   : UTF-8
Codec ID                                 : S_TEXT/UTF8
Codec ID/Info                            : UTF-8 Plain Text
Duration                                 : 1 h 45 min
Bit rate                                 : 40 b/s
Count of elements                        : 1093
Stream size                              : 31.1 KiB (0%)
Title                                    : Skater Girl - Kaykaycı Kız - 2021 | Filmbol.org
Language                                 : Turkish
Default                                  : No
Forced                                   : No

Film Detayları


 Kaykaycı Kız

 Kaykaycı Kız

 Kaykaycı Kız


Film Fragmanı


Film Detayları



Zip Şifresi: filmbol.org Aşağıdaki butona tıklayarak kopyalabilirsiniz.





Filmbol Cloud

Bunun için üzgünüz ancak, bu linke sadece premium üyeler erişebilir.




WWW
Şuan Offine!
Şuan Offine!
BIGSHOV Yeni Üye
*
Üye
  • Konular0
  • Mesajlar5
  • Rep puanı 0
Teşekkurler admin
Şuan Online!
Şuan Online!
TheSteeL Chief Executive Officer
******
CEO
(03-07-2021, Saat: 20:37)BIGSHOV Adlı Kullanıcıdan Alıntı: Teşekkurler admin
İyi Seyirler
Şuan Offine!
Şuan Offine!
Ahmet04266 Yeni Üye
*
Üye
  • Konular0
  • Mesajlar3
  • Rep puanı 0
mükemmel


Hızlı Menü: