Filmbol Forum Film İndir UHD - ULTRA HD - 4K v Uykusuz (Awake) - 2021 - TR+ORG - 4K (Re-Encoding 1080P) | HEVC - 10Bit-x265 | tt10418662
Bildirimi Kapat
Merhaba , site giderlerini bir nebze olsun karşılamak adına link kısaltma servisleri kullanmaya başladık. İndirme linkleri sizi ouo.io adresinde yönlendirecek, 3 saniye geçtikten sonra Get Link butonuna tıklayarak linke ulaşacaksınız. Premium üyeler bu durumdan etkilenmeyecektir.


Premium Üyelik Al

Uykusuz (Awake) - 2021 - TR+ORG - 4K (Re-Encoding 1080P) | HEVC - 10Bit-x265 | tt10418662
TheSteeL
Uykusuz (Awake) - 2021 - TR+ORG - 4K (Re-Encoding 1080P) | HEVC - 10Bit-x265 | tt10418662
2
55
  • Derecelendirme: 0/5 - 0 oy
  • 1
  • 2
  • 3
  • 4
  • 5
Konuyu Okuyanlar:3 Ziyaretçi
Şuan Online!
Filmin Yayınlanma Tarihi: 2021 
Şuan Online!
TheSteeL Chief Executive Officer
******
CEO


 Uykusuz



Dünya artık insanların evi gibi değildir. Büyük bir felaket sonrasında, yok olmanın eşiğinde olan dünya beraberinde insanları da götürür. İnsanlık ise dünyaya mecbur olduklarından bu küresel sorunu çözmek için işe koyulur. Fakat bu küresel sorundan kaynaklı olarak teknoloji cihazları tamamen çalışmaz hâle geldiğinden, insanları işi çok zordur...

Uykusuz (2021) (Awake) | tt10418662 Filmi Imdb'den 10000 kişi tarafından oylandı ve 4,8 puan aldı. Bu film için editör puanı %58 olarak belirlendi. İyi Seyirler!

Teknik Detaylar

Kod :
General
Unique ID                                : 26615539018942921379657286767147009059 (0x1405F763413E37078D5FAF354C08C423)
Complete name                            : /home/TheSteel/Desktop/1/Uykusuz.2021.1080p.4K.BluRay.x265.10Bit.HDR.HEVC.TR.ENG.Filmbol.mkv
Format                                   : Matroska
Format version                           : Version 4
File size                                : 1.62 GiB
Duration                                 : 1 h 37 min
Overall bit rate                         : 2 378 kb/s
Movie name                               : Awake - Uykusuz - 2021 | Filmbol.org
Encoded date                             : UTC 2021-06-13 20:36:01
Writing application                      : mkvmerge v31.0.0 ('Dolores In A Shoestand') 64-bit
Writing library                          : libebml v1.3.6 + libmatroska v1.4.9

Video
ID                                       : 1
Format                                   : HEVC
Format/Info                              : High Efficiency Video Coding
Format profile                           : Main [email protected]@Main
Codec ID                                 : V_MPEGH/ISO/HEVC
Duration                                 : 1 h 37 min
Bit rate                                 : 1 535 kb/s
Width                                    : 1 920 pixels
Height                                   : 960 pixels
Display aspect ratio                     : 2.000
Frame rate mode                          : Constant
Frame rate                               : 24.000 FPS
Color space                              : YUV
Chroma subsampling                       : 4:2:0
Bit depth                                : 10 bits
Bits/(Pixel*Frame)                       : 0.035
Stream size                              : 1.04 GiB (65%)
Title                                    : Awake - Uykusuz - 2021 | Filmbol.org
Default                                  : Yes
Forced                                   : No

Audio #1
ID                                       : 2
Format                                   : AC-3
Format/Info                              : Audio Coding 3
Commercial name                          : Dolby Digital
Codec ID                                 : A_AC3
Duration                                 : 1 h 37 min
Bit rate mode                            : Constant
Bit rate                                 : 640 kb/s
Channel(s)                               : 6 channels
Channel layout                           : L R C LFE Ls Rs
Sampling rate                            : 48.0 kHz
Frame rate                               : 31.250 FPS (1536 SPF)
Compression mode                         : Lossy
Stream size                              : 446 MiB (27%)
Title                                    : Awake - Uykusuz - 2021 | Filmbol.org
Language                                 : Turkish
Service kind                             : Complete Main
Default                                  : Yes
Forced                                   : No

Audio #2
ID                                       : 3
Format                                   : AAC LC SBR
Format/Info                              : Advanced Audio Codec Low Complexity with Spectral Band Replication
Commercial name                          : HE-AAC
Format settings                          : Explicit
Codec ID                                 : A_AAC-2
Duration                                 : 1 h 37 min
Bit rate                                 : 201 kb/s
Channel(s)                               : 6 channels
Channel layout                           : C L R Ls Rs LFE
Sampling rate                            : 48.0 kHz
Frame rate                               : 23.438 FPS (2048 SPF)
Compression mode                         : Lossy
Delay relative to video                  : 23 ms
Stream size                              : 140 MiB (8%)
Title                                    : Awake - Uykusuz - 2021 | Filmbol.org
Language                                 : English
Default                                  : No
Forced                                   : No

Text #1
ID                                       : 4
Format                                   : UTF-8
Codec ID                                 : S_TEXT/UTF8
Codec ID/Info                            : UTF-8 Plain Text
Duration                                 : 1 h 28 min
Bit rate                                 : 0 b/s
Count of elements                        : 7
Stream size                              : 148 Bytes (0%)
Title                                    : Awake - Uykusuz - 2021 | Filmbol.org
Language                                 : Turkish
Default                                  : Yes
Forced                                   : Yes

Text #2
ID                                       : 5
Format                                   : UTF-8
Codec ID                                 : S_TEXT/UTF8
Codec ID/Info                            : UTF-8 Plain Text
Duration                                 : 1 h 28 min
Bit rate                                 : 44 b/s
Count of elements                        : 1129
Stream size                              : 28.8 KiB (0%)
Title                                    : Awake - Uykusuz - 2021 | Filmbol.org
Language                                 : Turkish
Default                                  : No
Forced                                   : No

Film Detayları


 Uykusuz

 Uykusuz

 Uykusuz


Film Fragmanı


Film Detayları



Zip Şifresi: filmbol.org Aşağıdaki butona tıklayarak kopyalabilirsiniz.


Bu filmin orijinal DVD'si 4K olarak yayınlanmadığı için, tarafımızca yeniden x265 codec yapısı ile encode edilmiş ve genişlik ve yükseklik değeri sabit kalsa da bitrate oranı artırılmıştır. Sürüm 4K ile aynı kaliteye getirilmiştir.






Filmbol Cloud

Bunun için üzgünüz ancak, bu linke sadece premium üyeler erişebilir.




WWW
Şuan Offine!
Şuan Offine!
Vatansever Uzman Üye
**
Uzman Üye
  • Konular0
  • Mesajlar47
  • Rep puanı 0
Teşekkürler  TheSteeL   Heart
Şuan Online!
Şuan Online!
TheSteeL Chief Executive Officer
******
CEO
(01-08-2021, Saat: 12:19)Vatansever Adlı Kullanıcıdan Alıntı: Teşekkürler  TheSteeL   Heart
İyi Seyirler


Hızlı Menü: