Filmbol Forum Film İndir BRRip XviD v Uykusuz (Awake) - 2021 - TR - BRRip XviD | tt10418662
Bildirimi Kapat
Merhaba , site giderlerini bir nebze olsun karşılamak adına link kısaltma servisleri kullanmaya başladık. İndirme linkleri sizi ouo.io adresinde yönlendirecek, 3 saniye geçtikten sonra Get Link butonuna tıklayarak linke ulaşacaksınız. Premium üyeler bu durumdan etkilenmeyecektir.


Premium Üyelik Al

Uykusuz (Awake) - 2021 - TR - BRRip XviD | tt10418662
TheSteeL
Uykusuz (Awake) - 2021 - TR - BRRip XviD | tt10418662
0
26
  • Derecelendirme: 0/5 - 0 oy
  • 1
  • 2
  • 3
  • 4
  • 5
Konuyu Okuyanlar:2 Ziyaretçi
Şuan Online!
Filmin Yayınlanma Tarihi: 2021 
Şuan Online!
TheSteeL Chief Executive Officer
******
CEO


 Uykusuz



Dünya artık insanların evi gibi değildir. Büyük bir felaket sonrasında, yok olmanın eşiğinde olan dünya beraberinde insanları da götürür. İnsanlık ise dünyaya mecbur olduklarından bu küresel sorunu çözmek için işe koyulur. Fakat bu küresel sorundan kaynaklı olarak teknoloji cihazları tamamen çalışmaz hâle geldiğinden, insanları işi çok zordur...

Uykusuz (2021) (Awake) | tt10418662 Filmi Imdb'den 10000 kişi tarafından oylandı ve 4,8 puan aldı. Bu film için editör puanı %58 olarak belirlendi. İyi Seyirler!

Teknik Detaylar

Kod :
General
Unique ID                                : 228287118186508763055667471209396256460 (0xABBE7FEB3F19BE316A83BB1A57393ECC)
Complete name                            : /home/TheSteel/Desktop/1/Uykusuz.2021.HDRip.XViD.TR.Filmbol.avi
Format                                   : Matroska
Format version                           : Version 4
File size                                : 1 014 MiB
Duration                                 : 1 h 37 min
Overall bit rate                         : 1 456 kb/s
Movie name                               : Awake - Uykusuz - 2021 | Filmbol.org
Encoded date                             : UTC 2021-06-13 20:08:35
Writing application                      : mkvmerge v31.0.0 ('Dolores In A Shoestand') 64-bit
Writing library                          : libebml v1.3.6 + libmatroska v1.4.9
FileExtension_Invalid                    : mkv mk3d mka mks

Video
ID                                       : 1
Format                                   : MPEG-4 Visual
Format profile                           : [email protected]
Format settings, BVOP                    : No
Format settings, QPel                    : No
Format settings, GMC                     : No warppoints
Format settings, Matrix                  : Default (H.263)
Codec ID                                 : V_MS/VFW/FOURCC / XVID
Codec ID/Hint                            : XviD
Duration                                 : 1 h 37 min
Bit rate                                 : 1 326 kb/s
Width                                    : 720 pixels
Height                                   : 360 pixels
Display aspect ratio                     : 2.000
Frame rate mode                          : Constant
Frame rate                               : 24.000 FPS
Color space                              : YUV
Chroma subsampling                       : 4:2:0
Bit depth                                : 8 bits
Scan type                                : Progressive
Compression mode                         : Lossy
Bits/(Pixel*Frame)                       : 0.213
Stream size                              : 923 MiB (91%)
Title                                    : Awake - Uykusuz - 2021 | Filmbol.org
Writing library                          : Lavc58.35.100
Default                                  : Yes
Forced                                   : No

Audio
ID                                       : 2
Format                                   : MPEG Audio
Format version                           : Version 1
Format profile                           : Layer 3
Format settings                          : Joint stereo / MS Stereo
Codec ID                                 : A_MPEG/L3
Codec ID/Hint                            : MP3
Duration                                 : 1 h 37 min
Bit rate mode                            : Constant
Bit rate                                 : 128 kb/s
Channel(s)                               : 2 channels
Sampling rate                            : 48.0 kHz
Frame rate                               : 41.667 FPS (1152 SPF)
Compression mode                         : Lossy
Stream size                              : 89.1 MiB (9%)
Title                                    : Awake - Uykusuz - 2021 | Filmbol.org
Default                                  : Yes
Forced                                   : No

Film Detayları


 Uykusuz

 Uykusuz

 Uykusuz


Film Fragmanı


Film Detayları



Zip Şifresi: filmbol.org Aşağıdaki butona tıklayarak kopyalabilirsiniz.



Uptobox ile indir

1Fichier ile indir

1Fichier'den İndiremiyor musun? Tıklayın!





Filmbol Cloud

Bunun için üzgünüz ancak, bu linke sadece premium üyeler erişebilir.




WWW


Hızlı Menü: