Filmbol Forum Film İndir 720P v Kız Kardeşler (Kiz Kardesler) - 2019 - TR+ORG - 720P | tt9418878
Bildirimi Kapat
Merhaba , site giderlerini bir nebze olsun karşılamak adına link kısaltma servisleri kullanmaya başladık. İndirme linkleri sizi ouo.io adresinde yönlendirecek, 3 saniye geçtikten sonra Get Link butonuna tıklayarak linke ulaşacaksınız. Premium üyeler bu durumdan etkilenmeyecektir.


Premium Üyelik Al

Kız Kardeşler (Kiz Kardesler) - 2019 - TR+ORG - 720P | tt9418878
TheSteeL
Kız Kardeşler (Kiz Kardesler) - 2019 - TR+ORG - 720P | tt9418878
0
34
  • Derecelendirme: 0/5 - 0 oy
  • 1
  • 2
  • 3
  • 4
  • 5
Konuyu Okuyanlar:2 Ziyaretçi
Şuan Online!
Filmin Yayınlanma Tarihi: 2019 
Şuan Online!
TheSteeL Chief Executive Officer
******
CEO


 Kız Kardeşler



Reyhan, Nurhan ve Havva çok iyi geçinen üç kız kardeştir. Babalarının olmaması onları ne kadar etkilsede mükemmel anneleri sayesinde her zaman iyi hissederler. Fakat annelerinin ani ölümü ile kızlar yıkıma uğrar. Hiç bir yakınlarının olmaması onları önce evsizler yurduna sonra da farklı evlere farklı insanların yanına gitmelerine sebep olur. Üvey evlat olarak farklı evlere giden bu üç kız birbirlerinden asla ayrılmazlar.

Kız Kardeşler (2019) (Kiz Kardesler) | tt9418878 Filmi Imdb'den 3500 kişi tarafından oylandı ve 7,5 puan aldı. Bu film için editör puanı %80 olarak belirlendi. İyi Seyirler!

Teknik Detaylar

Kod :
General
Unique ID                                : 93020121755830922441970658817702750538 (0x45FB06173BB1704B092E068CE8C9E94A)
Complete name                            : /home/TheSteel/Desktop/2/Kiz.Kardesler.2019.720p.WEB-DL.x264.TR.Filmbol.mkv
Format                                   : Matroska
Format version                           : Version 4
File size                                : 1.54 GiB
Duration                                 : 1 h 42 min
Overall bit rate                         : 2 145 kb/s
Movie name                               : Kız Kardeşler - Kiz Kardesler - 2019 | Filmbol.org
Encoded date                             : UTC 2021-06-13 19:59:50
Writing application                      : mkvmerge v31.0.0 ('Dolores In A Shoestand') 64-bit
Writing library                          : libebml v1.3.6 + libmatroska v1.4.9

Video
ID                                       : 1
Format                                   : AVC
Format/Info                              : Advanced Video Codec
Format profile                           : [email protected]
Format settings                          : CABAC / 2 Ref Frames
Format settings, CABAC                   : Yes
Format settings, Reference frames        : 2 frames
Format settings, GOP                     : M=1, N=25
Codec ID                                 : V_MPEG4/ISO/AVC
Duration                                 : 1 h 42 min
Bit rate                                 : 1 952 kb/s
Width                                    : 1 280 pixels
Height                                   : 720 pixels
Display aspect ratio                     : 16:9
Frame rate mode                          : Constant
Frame rate                               : 25.000 FPS
Color space                              : YUV
Chroma subsampling                       : 4:2:0
Bit depth                                : 8 bits
Scan type                                : Progressive
Bits/(Pixel*Frame)                       : 0.085
Stream size                              : 1.40 GiB (91%)
Title                                    : Kız Kardeşler - Kiz Kardesler - 2019 | Filmbol.org
Default                                  : Yes
Forced                                   : No

Audio
ID                                       : 2
Format                                   : AC-3
Format/Info                              : Audio Coding 3
Commercial name                          : Dolby Digital
Codec ID                                 : A_AC3
Duration                                 : 1 h 42 min
Bit rate mode                            : Constant
Bit rate                                 : 192 kb/s
Channel(s)                               : 2 channels
Channel layout                           : L R
Sampling rate                            : 48.0 kHz
Frame rate                               : 31.250 FPS (1536 SPF)
Compression mode                         : Lossy
Stream size                              : 141 MiB (9%)
Title                                    : Kız Kardeşler - Kiz Kardesler - 2019 | Filmbol.org
Language                                 : Turkish
Service kind                             : Complete Main
Default                                  : Yes
Forced                                   : No

Film Detayları


 Kız Kardeşler

 Kız Kardeşler

 Kız Kardeşler


Film Fragmanı


Film Detayları



Zip Şifresi: filmbol.org Aşağıdaki butona tıklayarak kopyalabilirsiniz.


Uptobox ile indir

1Fichier ile indir

1Fichier'den İndiremiyor musun? Tıklayın!





Filmbol Cloud

Bunun için üzgünüz ancak, bu linke sadece premium üyeler erişebilir.




WWW


Hızlı Menü: