Filmbol Forum Film İndir BRRip XviD v Dancing Queens (Dancing Queens) - 2021 - TR - BRRip XviD | tt13032716
Bildirimi Kapat
Merhaba , site giderlerini bir nebze olsun karşılamak adına link kısaltma servisleri kullanmaya başladık. İndirme linkleri sizi ouo.io adresinde yönlendirecek, 3 saniye geçtikten sonra Get Link butonuna tıklayarak linke ulaşacaksınız. Premium üyeler bu durumdan etkilenmeyecektir.


Premium Üyelik Al

Dancing Queens (Dancing Queens) - 2021 - TR - BRRip XviD | tt13032716
TheSteeL
Dancing Queens (Dancing Queens) - 2021 - TR - BRRip XviD | tt13032716
0
39
  • Derecelendirme: 0/5 - 0 oy
  • 1
  • 2
  • 3
  • 4
  • 5
Konuyu Okuyanlar:1 Ziyaretçi
Şuan Online!
Filmin Yayınlanma Tarihi: 2021 
Şuan Online!
TheSteeL Chief Executive Officer
******
CEO


 Dancing Queens



Dylan'ın küçüklükten beri var olan ve şuan 23 yaşında olmasına rağmen devam eden büyük bir isteği vardır. İyi bir dansçı olmak ve isminden her yerde geçmesini sağlamak. Neyse ki bunun için büyük bir imkan vardır. Dylan yeteneklidir ve bu işi rahatlıkla yaparak yıldız olabilme ihtimali vardır. Fakat kader onun yanında olmaz ve kendini bir anda temizlikçi olarak bulur. Asla pes etmeyecek olan Dylan, buradan kurtulmayı başarabilecek midir?...

Dancing Queens (2021) (Dancing Queens) | tt13032716 Filmi Imdb'den 1000 kişi tarafından oylandı ve 5,3 puan aldı. Bu film için editör puanı %60 olarak belirlendi. İyi Seyirler!

Teknik Detaylar

Kod :
General
Unique ID                                : 131058906332513407176994351016874767024 (0x629906F7C9B251610D0F81BA4CFE72B0)
Complete name                            : /home/TheSteel/Desktop/6/Dancing.Queens.2021.HDRip.XViD.TR.Filmbol.avi
Format                                   : Matroska
Format version                           : Version 4
File size                                : 1.15 GiB
Duration                                 : 1 h 51 min
Overall bit rate                         : 1 477 kb/s
Movie name                               : Dancing Queens - 2021 | Filmbol.org
Encoded date                             : UTC 2021-06-08 12:29:11
Writing application                      : mkvmerge v31.0.0 ('Dolores In A Shoestand') 64-bit
Writing library                          : libebml v1.3.6 + libmatroska v1.4.9
FileExtension_Invalid                    : mkv mk3d mka mks

Video
ID                                       : 1
Format                                   : MPEG-4 Visual
Format profile                           : Advanced [email protected]
Format settings                          : BVOP2
Format settings, BVOP                    : 2
Format settings, QPel                    : No
Format settings, GMC                     : No warppoints
Format settings, Matrix                  : Default (MPEG)
Muxing mode                              : Packed bitstream
Codec ID                                 : V_MS/VFW/FOURCC / XVID
Codec ID/Hint                            : XviD
Duration                                 : 1 h 51 min
Bit rate                                 : 1 348 kb/s
Width                                    : 720 pixels
Height                                   : 404 pixels
Display aspect ratio                     : 16:9
Frame rate mode                          : Constant
Frame rate                               : 24.000 FPS
Color space                              : YUV
Chroma subsampling                       : 4:2:0
Bit depth                                : 8 bits
Scan type                                : Progressive
Compression mode                         : Lossy
Bits/(Pixel*Frame)                       : 0.193
Stream size                              : 1.05 GiB (91%)
Title                                    : Dancing Queens - 2021 | Filmbol.org
Writing library                          : XviD 64
Default                                  : Yes
Forced                                   : No

Audio
ID                                       : 2
Format                                   : MPEG Audio
Format version                           : Version 1
Format profile                           : Layer 3
Format settings                          : Joint stereo / MS Stereo
Codec ID                                 : A_MPEG/L3
Codec ID/Hint                            : MP3
Duration                                 : 1 h 51 min
Bit rate mode                            : Constant
Bit rate                                 : 128 kb/s
Channel(s)                               : 2 channels
Sampling rate                            : 48.0 kHz
Frame rate                               : 41.667 FPS (1152 SPF)
Compression mode                         : Lossy
Stream size                              : 102 MiB (9%)
Title                                    : Dancing Queens - 2021 | Filmbol.org
Default                                  : Yes
Forced                                   : No

Film Detayları


 Dancing Queens

 Dancing Queens

 Dancing Queens


Film Fragmanı


Film Detayları



Zip Şifresi: filmbol.org Aşağıdaki butona tıklayarak kopyalabilirsiniz.



Uptobox ile indir

1Fichier ile indir

1Fichier'den İndiremiyor musun? Tıklayın!





Filmbol Cloud

Bunun için üzgünüz ancak, bu linke sadece premium üyeler erişebilir.




WWW


Hızlı Menü: