Filmbol Forum Film İndir FHD - FULL HD v Predator (The Predator) - 2018 - TR+ORG - FHD - x264 | tt3829266
Bildirimi Kapat
Merhaba , site giderlerini bir nebze olsun karşılamak adına link kısaltma servisleri kullanmaya başladık. İndirme linkleri sizi ouo.io adresinde yönlendirecek, 3 saniye geçtikten sonra Get Link butonuna tıklayarak linke ulaşacaksınız. Premium üyeler bu durumdan etkilenmeyecektir.


Premium Üyelik Al

Predator (The Predator) - 2018 - TR+ORG - FHD - x264 | tt3829266
BroserBros
Predator (The Predator) - 2018 - TR+ORG - FHD - x264 | tt3829266
0
30
  • Derecelendirme: 0/5 - 0 oy
  • 1
  • 2
  • 3
  • 4
  • 5
Konuyu Okuyanlar:2 Ziyaretçi
Şuan Online!
Filmin Yayınlanma Tarihi: 2018 
Şuan Online!
BroserBros Kurucu Admin
*******
Admin


 Predator



Predator, tehdit altında olan insan ırkını, ölümcül Predator ırkından korumaya çalışan bir ekibin mücadelesini anlatıyor. Küçük bir çocuğunun yaptığı yanlışlık, evrenin en ölümcül avcıları olan Predator ırkının gezegene geri dönmesine neden olur. Onlar artık hiç olmadığı kadar güçlü, zeki ve ölümcüldür. Irk kendilerini diğer türlerden topladıkları DNA örnekleri ile oldukça geliştirmiştir. İnsanlık büyük bir tehlike ile karşı karşıyadır. İnsan ırkının sona ermesini ise sadece eski askerler ve hoşnutsuz bir fen öğretmeninden oluşan uyumsuz bir ekip engelleyebilir.

Predator (2018) (The Predator) | tt3829266 Filmi Imdb'den 120,000 kişi tarafından oylandı ve 5,3 puan aldı. Bu film için editör puanı %63 olarak belirlendi. İyi Seyirler!

Teknik Detaylar

Kod :
General
Unique ID                                : 138089006995110014561682419567218388367 (0x67E2F9B0F29E6CE186E8C4EB78B7ED8F)
Complete name                            : /home/BroserBros/Desktop/2/Predator.2018.FHD.BluRay.x264.TR.ENG.Filmbol.mkv
Format                                  : Matroska
Format version                          : Version 4
File size                                : 4.05 GiB
Duration                                : 1 h 47 min
Overall bit rate                        : 5 386 kb/s
Movie name                              : Predator - The Predator - 2018 | Filmbol.org
Encoded date                            : UTC 2021-06-10 14:05:07
Writing application                      : mkvmerge v53.0.0 ('Fool's Gold') 64-bit
Writing library                          : libebml v1.4.1 + libmatroska v1.6.2
Cover                                    : Yes
Attachments                              : small_cover.jpg / small_cover_land.jpg / cover.jpg / cover_land.jpg

Video
ID                                      : 1
Format                                  : AVC
Format/Info                              : Advanced Video Codec
Format profile                          : [email protected]
Format settings                          : CABAC / 5 Ref Frames
Format settings, CABAC                  : Yes
Format settings, Reference frames        : 5 frames
Codec ID                                : V_MPEG4/ISO/AVC
Duration                                : 1 h 47 min
Bit rate                                : 4 556 kb/s
Width                                    : 1 920 pixels
Height                                  : 802 pixels
Display aspect ratio                    : 2.40:1
Frame rate mode                          : Constant
Frame rate                              : 23.976 FPS
Color space                              : YUV
Chroma subsampling                      : 4:2:0
Bit depth                                : 8 bits
Scan type                                : Progressive
Bits/(Pixel*Frame)                      : 0.123
Stream size                              : 3.42 GiB (85%)
Title                                    : FHD - Filmbol.org
Language                                : English
Default                                  : Yes
Forced                                  : No
Color range                              : Limited
Color primaries                          : BT.709
Transfer characteristics                : BT.709
Matrix coefficients                      : BT.709

Audio #1
ID                                      : 2
Format                                  : AC-3
Format/Info                              : Audio Coding 3
Commercial name                          : Dolby Digital
Codec ID                                : A_AC3
Duration                                : 1 h 46 min
Bit rate mode                            : Constant
Bit rate                                : 448 kb/s
Channel(s)                              : 6 channels
Channel layout                          : L R C LFE Ls Rs
Sampling rate                            : 48.0 kHz
Frame rate                              : 31.250 FPS (1536 SPF)
Compression mode                        : Lossy
Delay relative to video                  : 957 ms
Stream size                              : 343 MiB (8%)
Title                                    : Türkçe - Filmbol.org
Language                                : Turkish
Service kind                            : Complete Main
Default                                  : No
Forced                                  : No

Audio #2
ID                                      : 3
Format                                  : AC-3
Format/Info                              : Audio Coding 3
Commercial name                          : Dolby Digital
Codec ID                                : A_AC3
Duration                                : 1 h 46 min
Bit rate mode                            : Constant
Bit rate                                : 384 kb/s
Channel(s)                              : 6 channels
Channel layout                          : L R C LFE Ls Rs
Sampling rate                            : 48.0 kHz
Frame rate                              : 31.250 FPS (1536 SPF)
Compression mode                        : Lossy
Delay relative to video                  : -43 ms
Stream size                              : 294 MiB (7%)
Title                                    : Orijinal Dil - Filmbol.org
Language                                : English
Service kind                            : Complete Main
Default                                  : Yes
Forced                                  : No

Text
ID                                      : 4
Format                                  : UTF-8
Codec ID                                : S_TEXT/UTF8
Codec ID/Info                            : UTF-8 Plain Text
Duration                                : 1 h 38 min
Bit rate                                : 48 b/s
Count of elements                        : 1136
Stream size                              : 35.4 KiB (0%)
Title                                    : Türkçe - Filmbol.org
Language                                : Turkish
Default                                  : No
Forced                                  : No

Film Detayları


 Predator

 Predator

 Predator


Film Fragmanı


Film Detayları



Zip Şifresi: filmbol.org Aşağıdaki butona tıklayarak kopyalabilirsiniz.





Filmbol Cloud

Bunun için üzgünüz ancak, bu linke sadece premium üyeler erişebilir.




WWW


Hızlı Menü: