Filmbol Forum Film İndir FHD - FULL HD v İntikam (Revenge) - 2017 - TR+ORG - FHD - x264 | tt6738136
Bildirimi Kapat
Merhaba , site giderlerini bir nebze olsun karşılamak adına link kısaltma servisleri kullanmaya başladık. İndirme linkleri sizi ouo.io adresinde yönlendirecek, 3 saniye geçtikten sonra Get Link butonuna tıklayarak linke ulaşacaksınız. Premium üyeler bu durumdan etkilenmeyecektir.


Premium Üyelik Al

İntikam (Revenge) - 2017 - TR+ORG - FHD - x264 | tt6738136
BroserBros
İntikam (Revenge) - 2017 - TR+ORG - FHD - x264 | tt6738136
1
29
  • Derecelendirme: 0/5 - 0 oy
  • 1
  • 2
  • 3
  • 4
  • 5
Konuyu Okuyanlar:1 Ziyaretçi
Şuan Online!
Filmin Yayınlanma Tarihi: 2017 
Şuan Online!
BroserBros Kurucu Admin
*******
Admin


 İntikam



Her yıl geleneksel olarak düzenlenen av partilerinin zamanı gelmiştir. Üç zengin adam parti için Richard’ın çöldeki malikanesinde bir araya gelecektir. Malikaneye ilk gelen Richard ile genç ve güzel metresi Jen olur. Güzel başlayan gece malikaneye diğerlerinin gelmesiyle kabusa döner. Birden her şey kontrolden çıkar ve Jen tecavüze uğrar. Öldüğü sanılan genç kadının bedeni çöle bırakılır. Çölde birden kendisine gelen ve yaşananları hatırlayan Jen, intikam almak için harekete geçer. Kendisine yapılanların bedelini ödetmeye kararlı olan genç kadın, bütün gücü eline alacaktır…

İntikam (2017) (Revenge) | tt6738136 Filmi Imdb'den 40,000 kişi tarafından oylandı ve 6,4 puan aldı. Bu film için editör puanı %69 olarak belirlendi. İyi Seyirler!

Teknik Detaylar

Kod :
General
Unique ID                                : 81325327393812254504900995428163118958 (0x3D2EB0362A1924750FCBC3CA7B89E76E)
Complete name                            : /home/BroserBros/Desktop/1/İntikam.2017.FHD.BluRay.x264.TR.ENG.Filmbol.mkv
Format                                   : Matroska
Format version                           : Version 4
File size                                : 3.84 GiB
Duration                                 : 1 h 48 min
Overall bit rate                         : 5 069 kb/s
Movie name                               : İntikam - Revenge - 2017 | Filmbol.org
Encoded date                             : UTC 2021-06-11 13:00:40
Writing application                      : mkvmerge v53.0.0 ('Fool's Gold') 64-bit
Writing library                          : libebml v1.4.1 + libmatroska v1.6.2
Cover                                    : Yes
Attachments                              : cover_land.jpg / small_cover.jpg / small_cover_land.jpg / cover.jpg

Video
ID                                       : 1
Format                                   : AVC
Format/Info                              : Advanced Video Codec
Format profile                           : [email protected]
Format settings                          : CABAC / 5 Ref Frames
Format settings, CABAC                   : Yes
Format settings, Reference frames        : 5 frames
Codec ID                                 : V_MPEG4/ISO/AVC
Duration                                 : 1 h 48 min
Bit rate                                 : 4 490 kb/s
Width                                    : 1 916 pixels
Height                                   : 808 pixels
Display aspect ratio                     : 2.40:1
Frame rate mode                          : Constant
Frame rate                               : 23.976 (23976/1000) FPS
Color space                              : YUV
Chroma subsampling                       : 4:2:0
Bit depth                                : 8 bits
Scan type                                : Progressive
Bits/(Pixel*Frame)                       : 0.121
Stream size                              : 3.40 GiB (89%)
Title                                    : FHD - Filmbol.org
Language                                 : English
Default                                  : Yes
Forced                                   : No
Color range                              : Limited
Color primaries                          : BT.709
Transfer characteristics                 : BT.709
Matrix coefficients                      : BT.709

Audio #1
ID                                       : 2
Format                                   : AC-3
Format/Info                              : Audio Coding 3
Commercial name                          : Dolby Digital
Codec ID                                 : A_AC3
Duration                                 : 1 h 48 min
Bit rate mode                            : Constant
Bit rate                                 : 192 kb/s
Channel(s)                               : 2 channels
Channel layout                           : L R
Sampling rate                            : 48.0 kHz
Frame rate                               : 31.250 FPS (1536 SPF)
Compression mode                         : Lossy
Delay relative to video                  : -42 ms
Stream size                              : 149 MiB (4%)
Title                                    : Türkçe - Filmbol.org
Language                                 : Turkish
Service kind                             : Complete Main
Default                                  : Yes
Forced                                   : No

Audio #2
ID                                       : 3
Format                                   : AC-3
Format/Info                              : Audio Coding 3
Commercial name                          : Dolby Digital
Codec ID                                 : A_AC3
Duration                                 : 1 h 48 min
Bit rate mode                            : Constant
Bit rate                                 : 384 kb/s
Channel(s)                               : 6 channels
Channel layout                           : L R C LFE Ls Rs
Sampling rate                            : 48.0 kHz
Frame rate                               : 31.250 FPS (1536 SPF)
Compression mode                         : Lossy
Delay relative to video                  : -42 ms
Stream size                              : 298 MiB (8%)
Title                                    : Orijinal Dil - Filmbol.org
Language                                 : English
Service kind                             : Complete Main
Default                                  : No
Forced                                   : No

Text #1
ID                                       : 4
Format                                   : UTF-8
Codec ID                                 : S_TEXT/UTF8
Codec ID/Info                            : UTF-8 Plain Text
Duration                                 : 1 h 43 min
Bit rate                                 : 14 b/s
Count of elements                        : 374
Stream size                              : 10.8 KiB (0%)
Title                                    : Türkçe - Filmbol.org
Language                                 : Turkish
Default                                  : No
Forced                                   : No

Text #2
ID                                       : 5
Format                                   : UTF-8
Codec ID                                 : S_TEXT/UTF8
Codec ID/Info                            : UTF-8 Plain Text
Duration                                 : 1 h 40 min
Bit rate                                 : 9 b/s
Count of elements                        : 210
Stream size                              : 6.65 KiB (0%)
Title                                    : Orijinal Dil - Filmbol.org
Language                                 : English
Default                                  : No
Forced                                   : No

Film Detayları


 İntikam

 İntikam

 İntikam


Film Fragmanı


Film Detayları



Zip Şifresi: filmbol.org Aşağıdaki butona tıklayarak kopyalabilirsiniz.





Filmbol Cloud

Bunun için üzgünüz ancak, bu linke sadece premium üyeler erişebilir.




WWW
Şuan Offine!
Şuan Offine!
angarabebesi Yeni Üye
*
Üye
  • Konular0
  • Mesajlar4
  • Rep puanı 0
tşk usta emeğine sağlık


Hızlı Menü: