Filmbol Forum Film İndir BRRip XviD v Kayıp Kız (Gone Girl) - 2014 - TR - BRRip XviD | tt2267998
Bildirimi Kapat
Merhaba , site giderlerini bir nebze olsun karşılamak adına link kısaltma servisleri kullanmaya başladık. İndirme linkleri sizi ouo.io adresinde yönlendirecek, 3 saniye geçtikten sonra Get Link butonuna tıklayarak linke ulaşacaksınız. Premium üyeler bu durumdan etkilenmeyecektir.


Premium Üyelik Al

Kayıp Kız (Gone Girl) - 2014 - TR - BRRip XviD | tt2267998
TheSteeL
Kayıp Kız (Gone Girl) - 2014 - TR - BRRip XviD | tt2267998
0
41
  • Derecelendirme: 0/5 - 0 oy
  • 1
  • 2
  • 3
  • 4
  • 5
Konuyu Okuyanlar:2 Ziyaretçi
Şuan Online!
Filmin Yayınlanma Tarihi: 2014 
Şuan Online!
TheSteeL Chief Executive Officer
******
CEO


 Kayıp Kız



Nick ve Amy iyi geçinen, neredeyse 5 yıldır evli olan iyi bir çifttir. Nick ise beşinci yılı kutlamak üzere iyi bir tatil planlar. Her şey güzel gidiyor ve tatilleri harika gidiyordur. Fakat çok kötü bir şey olur. Amy birdenbire kaybolur ve Nick hemen onu aramaya koyulur. Fakat kendi aramaları sonuç vermeyince hemen polise haber verir. Uzun uğraşlar sonucunda polis hiç bir şey yapamaz. Amy hâlâ kayıp olmaya devam edince gözler tamamen Nick'e çevrilir ve ondan şüphelenmeye başlanır. Nick ise u suçlamalar karşısında kendini bir oyunun içinde bulmuş gibi hisseder...

Kayıp Kız (2014) (Gone Girl) | tt2267998 Filmi Imdb'den 886000 kişi tarafından oylandı ve 8,1 puan aldı. Bu film için editör puanı %92 olarak belirlendi. İyi Seyirler!

Teknik Detaylar

Kod :
General
Unique ID                                : 95385983848158836181029998255301534559 (0x47C2AC19058D3AE47209FE511155235F)
Complete name                            : /home/TheSteel/Desktop/5/Kayıp.Kız.2014.BRRip.Xvid.TR.Filmbol.avi
Format                                   : Matroska
Format version                           : Version 4
File size                                : 1.55 GiB
Duration                                 : 2 h 29 min
Overall bit rate                         : 1 493 kb/s
Encoded date                             : UTC 2021-05-31 09:15:14
Writing application                      : mkvmerge v31.0.0 ('Dolores In A Shoestand') 64-bit
Writing library                          : libebml v1.3.6 + libmatroska v1.4.9
FileExtension_Invalid                    : mkv mk3d mka mks

Video
ID                                       : 1
Format                                   : MPEG-4 Visual
Format profile                           : Advanced [email protected]
Format settings                          : BVOP2
Format settings, BVOP                    : 2
Format settings, QPel                    : No
Format settings, GMC                     : No warppoints
Format settings, Matrix                  : Default (H.263)
Codec ID                                 : V_MS/VFW/FOURCC / XVID
Codec ID/Hint                            : XviD
Duration                                 : 2 h 29 min
Bit rate                                 : 1 363 kb/s
Width                                    : 640 pixels
Height                                   : 272 pixels
Display aspect ratio                     : 2.35:1
Frame rate mode                          : Constant
Frame rate                               : 23.976 (24000/1001) FPS
Color space                              : YUV
Chroma subsampling                       : 4:2:0
Bit depth                                : 8 bits
Scan type                                : Progressive
Compression mode                         : Lossy
Bits/(Pixel*Frame)                       : 0.327
Stream size                              : 1.42 GiB (91%)
Title                                    : Filmbol.org
Writing library                          : XviD 1.2.1 (UTC 2008-12-04)
Default                                  : Yes
Forced                                   : No

Audio
ID                                       : 2
Format                                   : MPEG Audio
Format version                           : Version 1
Format profile                           : Layer 3
Format settings                          : Joint stereo / MS Stereo
Codec ID                                 : A_MPEG/L3
Codec ID/Hint                            : MP3
Duration                                 : 2 h 29 min
Bit rate mode                            : Constant
Bit rate                                 : 128 kb/s
Channel(s)                               : 2 channels
Sampling rate                            : 48.0 kHz
Frame rate                               : 41.667 FPS (1152 SPF)
Compression mode                         : Lossy
Stream size                              : 136 MiB (9%)
Title                                    : Türkçe - Filmbol.org
Writing library                          : LAME3.99r
Encoding settings                        : -m j -V 4 -q 2 -lowpass 17 -b 128
Default                                  : Yes
Forced                                   : No

Film Detayları


 Kayıp Kız

 Kayıp Kız

 Kayıp Kız


Film Fragmanı


Film Detayları



Zip Şifresi: filmbol.org Aşağıdaki butona tıklayarak kopyalabilirsiniz.

Mega linkiniz:



Uptobox ile indir

1Fichier ile indir

1Fichier'den İndiremiyor musun? Tıklayın!








Bunun için üzgünüz ancak, bu linke sadece premium üyeler erişebilir.

Filmbol Cloud





WWW


Hızlı Menü: