Filmbol Forum Film İndir FHD - FULL HD v Gerçeğin Peşinde (Angel of Mine) - 2019 - TR+ORG - FHD - x264 | tt7058080
Bildirimi Kapat
Merhaba , site giderlerini bir nebze olsun karşılamak adına link kısaltma servisleri kullanmaya başladık. İndirme linkleri sizi ouo.io adresinde yönlendirecek, 3 saniye geçtikten sonra Get Link butonuna tıklayarak linke ulaşacaksınız. Premium üyeler bu durumdan etkilenmeyecektir.


Premium Üyelik Al

Gerçeğin Peşinde (Angel of Mine) - 2019 - TR+ORG - FHD - x264 | tt7058080
BroserBros
Gerçeğin Peşinde (Angel of Mine) - 2019 - TR+ORG - FHD - x264 | tt7058080
0
16
  • Derecelendirme: 0/5 - 0 oy
  • 1
  • 2
  • 3
  • 4
  • 5
Konuyu Okuyanlar:1 Ziyaretçi
Şuan Online!
Filmin Yayınlanma Tarihi: 2019 
Şuan Online!
BroserBros Kurucu Admin
*******
Admin


 Gerçeğin Peşinde



Gerçeğin Peşinde, kızını kaybettikten sonra bunalıma giren ve başka bir kadının çocuğunun, kendi çocuğu olduğunu düşünen bir kadının öyküsünü konu ediyor. Lizzie, kocası ile boşanma aşamasında olan bir kadındır. Genç kadın hayatını işine ve 11 yaşındaki oğlu Thomas’a adar. Ancak bir tesadüf eseri tanıştığı 7 yaşındaki Lola, genç kadının geçmişe yolculuk yapmasına neden olur. Lizzie, yıllar önce yaşadığı korkunç olayın etkisinden hala çıkamamıştır. Yıllar önce kızının doğumu sırasında çıkan yangın yüzünden çocuğunu kaybeden Lizzie, karşısında Lola’yı görünce onun kızı olduğunu düşünür. Lola’ya yakın olmak için küçük kızın annesi ile yakınlaşmaya başlayan Lizzie, bir süre sonra onların çevresinden ayrılmaz hale gelir. Lizzie’nin bu tavırlarından endişe duyan yakınları, onu engellemeye çalışsa da kimse başarılı olamaz. Saplantı haline getirdiği durum yüzünden ailesi ve oğlu ile arası açılan Lizzie, vazgeçmeden Lola’nın kızı olduğunu iddia etmeye devam eder...

Gerçeğin Peşinde (2019) (Angel of Mine) | tt7058080 Filmi Imdb'den 9,000 kişi tarafından oylandı ve 6,4 puan aldı. Bu film için editör puanı %65 olarak belirlendi. İyi Seyirler!

Teknik Detaylar

Kod :
General
Unique ID                                : 310294859803743388649707891026814196545 (0xE9709DBFD7E44D0B745FFD16EEF65B41)
Complete name                            : /home/BroserBros/Desktop/1/Gerçeğin.Peşinde.2019.FHD.BluRay.x264.TR.ENG.Filmbol.mkv
Format                                   : Matroska
Format version                           : Version 4
File size                                : 3.53 GiB
Duration                                 : 1 h 38 min
Overall bit rate                         : 5 136 kb/s
Movie name                               : Gerçeğin Peşinde - Angel of Mine - 2019 | Filmbol.org
Encoded date                             : UTC 2021-06-09 12:50:03
Writing application                      : mkvmerge v53.0.0 ('Fool's Gold') 64-bit
Writing library                          : libebml v1.4.1 + libmatroska v1.6.2

Video
ID                                       : 1
Format                                   : AVC
Format/Info                              : Advanced Video Codec
Format profile                           : [email protected]
Format settings                          : CABAC / 5 Ref Frames
Format settings, CABAC                   : Yes
Format settings, Reference frames        : 5 frames
Codec ID                                 : V_MPEG4/ISO/AVC
Duration                                 : 1 h 38 min
Bit rate                                 : 4 557 kb/s
Width                                    : 1 920 pixels
Height                                   : 798 pixels
Display aspect ratio                     : 2.40:1
Frame rate mode                          : Constant
Frame rate                               : 23.976 (23976/1000) FPS
Color space                              : YUV
Chroma subsampling                       : 4:2:0
Bit depth                                : 8 bits
Scan type                                : Progressive
Bits/(Pixel*Frame)                       : 0.124
Stream size                              : 3.13 GiB (89%)
Title                                    : FHD - Filmbol.org
Language                                 : English
Default                                  : Yes
Forced                                   : No
Color range                              : Limited
Color primaries                          : BT.709
Transfer characteristics                 : BT.709
Matrix coefficients                      : BT.709

Audio #1
ID                                       : 2
Format                                   : AC-3
Format/Info                              : Audio Coding 3
Commercial name                          : Dolby Digital
Codec ID                                 : A_AC3
Duration                                 : 1 h 38 min
Bit rate mode                            : Constant
Bit rate                                 : 192 kb/s
Channel(s)                               : 2 channels
Channel layout                           : L R
Sampling rate                            : 48.0 kHz
Frame rate                               : 31.250 FPS (1536 SPF)
Compression mode                         : Lossy
Stream size                              : 135 MiB (4%)
Title                                    : Türkçe - Filmbol.org
Language                                 : Turkish
Service kind                             : Complete Main
Default                                  : Yes
Forced                                   : No

Audio #2
ID                                       : 3
Format                                   : AC-3
Format/Info                              : Audio Coding 3
Commercial name                          : Dolby Digital
Codec ID                                 : A_AC3
Duration                                 : 1 h 38 min
Bit rate mode                            : Constant
Bit rate                                 : 384 kb/s
Channel(s)                               : 6 channels
Channel layout                           : L R C LFE Ls Rs
Sampling rate                            : 48.0 kHz
Frame rate                               : 31.250 FPS (1536 SPF)
Compression mode                         : Lossy
Stream size                              : 270 MiB (7%)
Title                                    : Orijinal Dil - Filmbol.org
Language                                 : English
Service kind                             : Complete Main
Default                                  : No
Forced                                   : No

Text
ID                                       : 4
Format                                   : UTF-8
Codec ID                                 : S_TEXT/UTF8
Codec ID/Info                            : UTF-8 Plain Text
Duration                                 : 1 h 31 min
Bit rate                                 : 39 b/s
Count of elements                        : 936
Stream size                              : 26.4 KiB (0%)
Title                                    : Türkçe - Filmbol.org
Language                                 : Turkish
Default                                  : No
Forced                                   : No

Film Detayları


 Gerçeğin Peşinde

 Gerçeğin Peşinde

 Gerçeğin Peşinde


Film Fragmanı


Film Detayları



Zip Şifresi: filmbol.org Aşağıdaki butona tıklayarak kopyalabilirsiniz.

Mega linkiniz:








Bunun için üzgünüz ancak, bu linke sadece premium üyeler erişebilir.

Filmbol Cloud





WWW


Hızlı Menü: