Filmbol Forum Film İndir BRRip XviD v Batman Başlıyor (Batman Begins) - 2005 - TR - BRRip XviD | tt0372784

Premium Üyelik Al

Bildirimi Kapat
Mega linklerinin şikayet edilmemesi için global erişime kapatıp sadece yorum yapanlara açıyoruz. Bu linkleri gizleme işlemini mecburen yapıyoruz ve yorum yapmanızın siteye değil size faydası vardır. Teşekkürler yazmayı çok görüp, Random/Spam/Anlamsız mesajlar atarak forumu kirletip Mega linklerini açmaya çalışan kullanıcılara süresiz ban atacağız.


Batman Başlıyor (Batman Begins) - 2005 - TR - BRRip XviD | tt0372784
TheSteeL
Batman Başlıyor (Batman Begins) - 2005 - TR - BRRip XviD | tt0372784
4
42
  • Derecelendirme: 0/5 - 0 oy
  • 1
  • 2
  • 3
  • 4
  • 5
Konuyu Okuyanlar:1 Ziyaretçi
Şuan Online!
Filmin Yayınlanma Tarihi: 2005 
WWW
Şuan Online!
TheSteeL Süper Moderatör
*****
Süper Moderatör



 Batman Başlıyor



Gotham şehrinin suç oranı ciddi manada yükselmeye devam etmekte ve şehit tamamen kötü insanlarla kâplanmaya başlamıştır. İyi insanlar ve iyi olmaya çalışan insanlarda bu durumdan şikayetçi olmuş ve şehri terketmeye başlamışlardır. Bunu engelleyebilecek tek kişi ise babası ve anne'cide bu kötü insanlar tarafından öldürülmüş olan Bruce Wayne yani Batman'dır. Batman annesi ve babası öldürüldükten sonra intikam yemini etmiş ve ettiği yeminden ne olursa olsun dönmeyecek zengin bir adamdır ve kötülerin ondan kaçması zordur. Batman Gotham için adeta iyilik meleği gibi ortaya çıkmıştır...

Batman Başlıyor (2005) (Batman Begins) | tt0372784 Filmi Imdb'den 1336000 kişi tarafından oylandı ve 8,2 puan aldı. Bu film için editör puanı %93 olarak belirlendi. İyi Seyirler!

Teknik Detaylar

Kod :
General
Unique ID                                : 313889905996624689950699100472104531264 (0xEC24FF3625D4492D3EF485FD8FD13540)
Complete name                            : /home/TheSteel/Desktop/1/Batman.Basliyor.2005.BRRip.Xvid.TR.Filmbol.avi
Format                                  : Matroska
Format version                          : Version 4
File size                                : 656 MiB
Duration                                : 2 h 7 min
Overall bit rate                        : 718 kb/s
Movie name                              : Batman Begins - Batman Başlıyor - 2005 | Filmbol.org
Encoded date                            : UTC 2021-06-07 15:42:27
Writing application                      : mkvmerge v31.0.0 ('Dolores In A Shoestand') 64-bit
Writing library                          : libebml v1.3.6 + libmatroska v1.4.9
FileExtension_Invalid                    : mkv mk3d mka mks

Video
ID                                      : 1
Format                                  : MPEG-4 Visual
Format profile                          : Advanced [email protected]
Format settings                          : BVOP2
Format settings, BVOP                    : 2
Format settings, QPel                    : No
Format settings, GMC                    : No warppoints
Format settings, Matrix                  : Default (H.263)
Codec ID                                : V_MS/VFW/FOURCC / XVID
Codec ID/Hint                            : XviD
Duration                                : 2 h 7 min
Bit rate                                : 594 kb/s
Width                                    : 720 pixels
Height                                  : 304 pixels
Display aspect ratio                    : 2.35:1
Frame rate mode                          : Constant
Frame rate                              : 25.000 FPS
Color space                              : YUV
Chroma subsampling                      : 4:2:0
Bit depth                                : 8 bits
Scan type                                : Progressive
Compression mode                        : Lossy
Bits/(Pixel*Frame)                      : 0.109
Stream size                              : 543 MiB (83%)
Title                                    : Filmbol.org
Writing library                          : XviD 1.2.1 (UTC 2008-12-04)
Default                                  : Yes
Forced                                  : No

Audio
ID                                      : 2
Format                                  : MPEG Audio
Format version                          : Version 1
Format profile                          : Layer 3
Format settings                          : Joint stereo / MS Stereo
Codec ID                                : A_MPEG/L3
Codec ID/Hint                            : MP3
Duration                                : 2 h 1 min
Bit rate mode                            : Constant
Bit rate                                : 128 kb/s
Channel(s)                              : 2 channels
Sampling rate                            : 48.0 kHz
Frame rate                              : 41.667 FPS (1152 SPF)
Compression mode                        : Lossy
Stream size                              : 112 MiB (17%)
Title                                    : Türkçe - Filmbol.org
Writing library                          : LAME3.98.2
Default                                  : Yes
Forced                                  : No

Film Detayları


 Batman Başlıyor

 Batman Başlıyor

 Batman Başlıyor


Film Fragmanı


Film Detayları


Uptobox ile indir

1Fichier ile indir

1Fichier'den İndiremiyor musun? Tıklayın!


Mega linki şuan da gizli. Kullanıma açmak için konuya yorum yapın ve ardından sayfayı yenileyin.

Mega


Bunun için üzgünüz ancak, bu linke sadece premium üyeler erişebilir.

Filmbol Cloud





Şuan Online!
Şuan Online!
Furkan61 Süper Üye
***
Super Üye

  • Konular0
  • Mesajlar294
  • Rep puanı 4
Teşekkürler
Şuan Online!
Şuan Online!
TheSteeL Süper Moderatör
*****
Süper Moderatör

(09-06-2021, Saat: 01:16)Furkan61 Adlı Kullanıcıdan Alıntı: Teşekkürler
İyi Seyirler
Şuan Online!
Şuan Online!
Furkan61 Süper Üye
***
Super Üye

  • Konular0
  • Mesajlar294
  • Rep puanı 4
ses kaymasi var düzeltirseniz sevinirim
Şuan Online!
Şuan Online!
TheSteeL Süper Moderatör
*****
Süper Moderatör

(10-06-2021, Saat: 19:12)Furkan61 Adlı Kullanıcıdan Alıntı: ses kaymasi var düzeltirseniz sevinirim
Düzeltildi Linkler Yenilendi.


Hızlı Menü: