Filmbol Forum Film İndir BRRip XviD v Logan: Wolverine (Logan) - 2017 - TR - BRRip XviD | tt3315342
Bildirimi Kapat
Merhaba , site giderlerini bir nebze olsun karşılamak adına link kısaltma servisleri kullanmaya başladık. İndirme linkleri sizi ouo.io adresinde yönlendirecek, 3 saniye geçtikten sonra Get Link butonuna tıklayarak linke ulaşacaksınız. Premium üyeler bu durumdan etkilenmeyecektir.


Premium Üyelik Al

Logan: Wolverine (Logan) - 2017 - TR - BRRip XviD | tt3315342
TheSteeL
Logan: Wolverine (Logan) - 2017 - TR - BRRip XviD | tt3315342
2
53
  • Derecelendirme: 0/5 - 0 oy
  • 1
  • 2
  • 3
  • 4
  • 5
Konuyu Okuyanlar:2 Ziyaretçi
Şuan Online!
Filmin Yayınlanma Tarihi: 2017 
Şuan Online!
TheSteeL Chief Executive Officer
******
CEO


 Logan: Wolverine



Logan, uzun süre boyunca savaşmış ve artık yaşlanmaya başladığından köşesine çekilerek standart bir hayat yaşamaya başlamıştır. Fakat savaşmak onun kanında vardır, çok defa denediği standart bir yaşam hedefi genç bir kızın onu bularak yardım istemesi ile tamamen değişir. Kız ve arkadaşları insanlar tarafından sırf mutant oldukları için saldırıya uğramış ve yardıma ihtiyaç duymaktadırlar. Neyse ki yardımlarına X-Men yetişecektir...

Logan: Wolverine (2017) (Logan) | tt3315342 Filmi Imdb'den 669000 kişi tarafından oylandı ve 8,1 puan aldı. Bu film için editör puanı %90 olarak belirlendi. İyi Seyirler!

Teknik Detaylar

Kod :
General
Unique ID                                : 274094064001550473506884999720214071953 (0xCE3498B71A7F4AE3955B46607CF60A91)
Complete name                            : /home/TheSteel/Desktop/2/Logan.Wolverine.2017.BRRip.Xvid.TR.Filmbol.avi
Format                                   : Matroska
Format version                           : Version 4
File size                                : 1.35 GiB
Duration                                 : 2 h 17 min
Overall bit rate                         : 1 410 kb/s
Movie name                               : Logan - Logan: Wolverine - 2017 | Filmbol.org
Encoded date                             : UTC 2021-06-07 10:38:26
Writing application                      : mkvmerge v31.0.0 ('Dolores In A Shoestand') 64-bit
Writing library                          : libebml v1.3.6 + libmatroska v1.4.9
FileExtension_Invalid                    : mkv mk3d mka mks

Video
ID                                       : 1
Format                                   : MPEG-4 Visual
Format profile                           : Advanced [email protected]
Format settings                          : BVOP1
Format settings, BVOP                    : 1
Format settings, QPel                    : No
Format settings, GMC                     : No warppoints
Format settings, Matrix                  : Default (H.263)
Codec ID                                 : V_MS/VFW/FOURCC / XVID
Codec ID/Hint                            : XviD
Duration                                 : 2 h 17 min
Bit rate                                 : 1 216 kb/s
Width                                    : 720 pixels
Height                                   : 304 pixels
Display aspect ratio                     : 2.35:1
Frame rate mode                          : Constant
Frame rate                               : 23.976 (24000/1001) FPS
Color space                              : YUV
Chroma subsampling                       : 4:2:0
Bit depth                                : 8 bits
Scan type                                : Progressive
Compression mode                         : Lossy
Bits/(Pixel*Frame)                       : 0.232
Stream size                              : 1.17 GiB (86%)
Title                                    : Filmbol.org
Writing library                          : XviD 67
Default                                  : Yes
Forced                                   : No

Audio
ID                                       : 2
Format                                   : AC-3
Format/Info                              : Audio Coding 3
Commercial name                          : Dolby Digital
Codec ID                                 : A_AC3
Duration                                 : 2 h 17 min
Bit rate mode                            : Constant
Bit rate                                 : 192 kb/s
Channel(s)                               : 2 channels
Channel layout                           : L R
Sampling rate                            : 48.0 kHz
Frame rate                               : 31.250 FPS (1536 SPF)
Compression mode                         : Lossy
Stream size                              : 189 MiB (14%)
Title                                    : Türkçe - Filmbol.org
Service kind                             : Complete Main
Default                                  : Yes
Forced                                   : No

Film Detayları


 Logan: Wolverine

 Logan: Wolverine

 Logan: Wolverine


Film Fragmanı


Film Detayları



Zip Şifresi: filmbol.org Aşağıdaki butona tıklayarak kopyalabilirsiniz.



Uptobox ile indir

1Fichier ile indir

1Fichier'den İndiremiyor musun? Tıklayın!





Filmbol Cloud

Bunun için üzgünüz ancak, bu linke sadece premium üyeler erişebilir.




WWW
Şuan Offine!
Şuan Offine!
Brsakcay Yeni Üye
*
Üye
  • Konular0
  • Mesajlar5
  • Rep puanı 0
Uzun soluklu ve aksiyonun uç noktalarda bir wolverine filmi fakat sonumuz böyle olmamalıydı Big Grin Filmbol'a teşekkürler.
Şuan Online!
Şuan Online!
TheSteeL Chief Executive Officer
******
CEO
(27-06-2021, Saat: 17:08)Brsakcay Adlı Kullanıcıdan Alıntı: Uzun soluklu ve aksiyonun uç noktalarda bir wolverine filmi fakat sonumuz böyle olmamalıydı Big Grin Filmbol'a teşekkürler.
İyi Seyirler


Hızlı Menü: