Filmbol Forum Film İndir FHD - FULL HD v Inrang (Illang: The Wolf Brigade) - 2018 - TR+ORG - FHD - x264 | tt3967878
Bildirimi Kapat
Merhaba , site giderlerini bir nebze olsun karşılamak adına link kısaltma servisleri kullanmaya başladık. İndirme linkleri sizi ouo.io adresinde yönlendirecek, 3 saniye geçtikten sonra Get Link butonuna tıklayarak linke ulaşacaksınız. Premium üyeler bu durumdan etkilenmeyecektir.


Premium Üyelik Al

Inrang (Illang: The Wolf Brigade) - 2018 - TR+ORG - FHD - x264 | tt3967878
BroserBros
Inrang (Illang: The Wolf Brigade) - 2018 - TR+ORG - FHD - x264 | tt3967878
0
19
  • Derecelendirme: 0/5 - 0 oy
  • 1
  • 2
  • 3
  • 4
  • 5
Konuyu Okuyanlar:2 Ziyaretçi
Şuan Online!
Filmin Yayınlanma Tarihi: 2018 
Şuan Online!
BroserBros Kurucu Admin
*******
Admin


 Inrang



Film, Kuzey Kore ve Güney Kore’nin birleşme kararından sonra gelişen olayları konu almaktadır.

2029 yılında Kuzey Kore ve Güney Kore hükümeti birleşerek bir devlet kurmayı kabul eder. Son 5 yıldır da bunun için hazırlıklar yapılmaktadır. Bu arada, birleşmeyi destekleyen ve bu birleşmeye karşı çıkanlar olmak üzere insanlar iki gruba ayrılır ve büyük tartışmalar meydana gelir. ‘Sect’ adı altında birleşmeye karşı olan bir terör örgütü ortaya çıkar ve terörist eylemlerde bulunmaya başlar. Dahası elinde büyük bir güç barındıran hükümet istihbarat ajansıda birleşmeye karşıdır. Bunun üzerine özel bir polis gücü oluşturulur.

Inrang (2018) (Illang: The Wolf Brigade) | tt3967878 Filmi Imdb'den 5,000 kişi tarafından oylandı ve 6,0 puan aldı. Bu film için editör puanı %62 olarak belirlendi. İyi Seyirler!

Teknik Detaylar

Kod :
General
Unique ID                                : 331509436592681311647283443911266417772 (0xF9666523D643370AA4846AAA97E43C6C)
Complete name                            : /home/BroserBros/Desktop/5/Inrang.2018.FHD.BluRay.x264.TR.ENG.Filmbol.mkv
Format                                   : Matroska
Format version                           : Version 4
File size                                : 5.97 GiB
Duration                                 : 2 h 19 min
Overall bit rate mode                    : Variable
Overall bit rate                         : 6 110 kb/s
Movie name                               : Inrang - Illang The Wolf Brigade - 2018 | Filmbol.org
Encoded date                             : UTC 2021-06-06 09:35:00
Writing application                      : mkvmerge v53.0.0 ('Fool's Gold') 64-bit
Writing library                          : libebml v1.4.1 + libmatroska v1.6.2
Cover                                    : Yes
Attachments                              : cover_land.jpg / small_cover.jpg / small_cover_land.jpg / cover.jpg

Video
ID                                       : 1
Format                                   : AVC
Format/Info                              : Advanced Video Codec
Format profile                           : [email protected]
Format settings                          : CABAC / 3 Ref Frames
Format settings, CABAC                   : Yes
Format settings, Reference frames        : 3 frames
Codec ID                                 : V_MPEG4/ISO/AVC
Duration                                 : 2 h 19 min
Bit rate mode                            : Variable
Bit rate                                 : 5 360 kb/s
Maximum bit rate                         : 8 040 kb/s
Width                                    : 1 920 pixels
Height                                   : 1 080 pixels
Display aspect ratio                     : 16:9
Frame rate mode                          : Constant
Frame rate                               : 23.976 (24000/1001) FPS
Color space                              : YUV
Chroma subsampling                       : 4:2:0
Bit depth                                : 8 bits
Scan type                                : Progressive
Bits/(Pixel*Frame)                       : 0.108
Stream size                              : 5.22 GiB (87%)
Title                                    : FHD - Filmbol.org
Writing library                          : x264 core 148 r2715 7e75228
Encoding settings                        : cabac=1 / ref=3 / deblock=1:0:0 / analyse=0x1:0x111 / me=umh / subme=10 / psy=1 / psy_rd=1.00:0.00 / mixed_ref=1 / me_range=24 / chroma_me=1 / trellis=2 / 8x8dct=0 / cqm=0 / deadzone=21,11 / fast_pskip=1 / chroma_qp_offset=-2 / threads=8 / lookahead_threads=1 / sliced_threads=0 / nr=0 / decimate=1 / interlaced=0 / bluray_compat=0 / stitchable=1 / constrained_intra=0 / bframes=2 / b_pyramid=0 / b_adapt=2 / b_bias=0 / direct=3 / weightb=1 / open_gop=0 / weightp=2 / keyint=48 / keyint_min=25 / scenecut=0 / intra_refresh=0 / rc_lookahead=48 / rc=2pass / mbtree=1 / bitrate=5360 / ratetol=1.0 / qcomp=0.50 / qpmin=6 / qpmax=51 / qpstep=4 / cplxblur=20.0 / qblur=0.5 / vbv_maxrate=8040 / vbv_bufsize=10720 / nal_hrd=vbr / filler=0 / ip_ratio=1.40 / aq=1:1.00
Default                                  : Yes
Forced                                   : No

Audio #1
ID                                       : 2
Format                                   : AC-3
Format/Info                              : Audio Coding 3
Commercial name                          : Dolby Digital
Codec ID                                 : A_AC3
Duration                                 : 2 h 19 min
Bit rate mode                            : Constant
Bit rate                                 : 384 kb/s
Channel(s)                               : 6 channels
Channel layout                           : L R C LFE Ls Rs
Sampling rate                            : 48.0 kHz
Frame rate                               : 31.250 FPS (1536 SPF)
Compression mode                         : Lossy
Stream size                              : 384 MiB (6%)
Title                                    : Türkçe - Filmbol.org
Language                                 : Turkish
Service kind                             : Complete Main
Default                                  : Yes
Forced                                   : No

Audio #2
ID                                       : 3
Format                                   : AC-3
Format/Info                              : Audio Coding 3
Commercial name                          : Dolby Digital
Codec ID                                 : A_AC3
Duration                                 : 2 h 19 min
Bit rate mode                            : Constant
Bit rate                                 : 384 kb/s
Channel(s)                               : 6 channels
Channel layout                           : L R C LFE Ls Rs
Sampling rate                            : 48.0 kHz
Frame rate                               : 31.250 FPS (1536 SPF)
Compression mode                         : Lossy
Stream size                              : 384 MiB (6%)
Title                                    : Orijinal Dil - Filmbol.org
Language                                 : Korean
Service kind                             : Complete Main
Default                                  : No
Forced                                   : No

Text #1
ID                                       : 4
Format                                   : UTF-8
Codec ID                                 : S_TEXT/UTF8
Codec ID/Info                            : UTF-8 Plain Text
Duration                                 : 2 h 10 min
Bit rate                                 : 0 b/s
Count of elements                        : 21
Stream size                              : 809 Bytes (0%)
Title                                    : Türkçe - Filmbol.org
Language                                 : Turkish
Default                                  : Yes
Forced                                   : Yes

Text #2
ID                                       : 5
Format                                   : UTF-8
Codec ID                                 : S_TEXT/UTF8
Codec ID/Info                            : UTF-8 Plain Text
Duration                                 : 2 h 18 min
Bit rate                                 : 26 b/s
Count of elements                        : 845
Stream size                              : 26.4 KiB (0%)
Title                                    : Türkçe - Filmbol.org
Language                                 : Turkish
Default                                  : No
Forced                                   : No

Film Detayları


 Inrang

 Inrang

 Inrang


Film Fragmanı


Film Detayları



Zip Şifresi: filmbol.org Aşağıdaki butona tıklayarak kopyalabilirsiniz.

Mega linkiniz:








Bunun için üzgünüz ancak, bu linke sadece premium üyeler erişebilir.

Filmbol Cloud





WWW


Hızlı Menü: