Filmbol Forum Film İndir BRRip XviD v Çelik Adam (Man of Steel) - 2013 - TR - BRRip XviD | tt0770828

Premium Üyelik Al

Bildirimi Kapat
Mega linklerinin şikayet edilmemesi için global erişime kapatıp sadece yorum yapanlara açıyoruz. Bu linkleri gizleme işlemini mecburen yapıyoruz ve yorum yapmanızın siteye değil size faydası vardır. Teşekkürler yazmayı çok görüp, Random/Spam/Anlamsız mesajlar atarak forumu kirletip Mega linklerini açmaya çalışan kullanıcılara süresiz ban atacağız.


Çelik Adam (Man of Steel) - 2013 - TR - BRRip XviD | tt0770828
TheSteeL
Çelik Adam (Man of Steel) - 2013 - TR - BRRip XviD | tt0770828
2
29
  • Derecelendirme: 0/5 - 0 oy
  • 1
  • 2
  • 3
  • 4
  • 5
Konuyu Okuyanlar:1 Ziyaretçi
Şuan Online!
Filmin Yayınlanma Tarihi: 2013 
WWW
Şuan Online!
TheSteeL Süper Moderatör
*****
Süper Moderatör



 Çelik Adam



DC evreninin en önemli eserlerinden birisi olan Man of The Steel (Çelik Adam) filmi yine DC evreninin en güçlü karakteri olan Superman'ın geçmişine odaklanıyor. Clark güçlerinin farkına yeni yeni varmaya başlamış, ancak nasıl kullanacağı hakkında en ufak bilgiye sahip olmayan bir adam olarak karşımıza çıkıyor. Bunun sonucunda ise birçok başarısızlık ile birlikte güçlerinin kullanımını öğrenmeye başlıyor ve evrenin en güçlüsü olma yolunda ilk adımlarını atıyor. Filmin yönetmen koltuğunda ise başarılı isim olan Zack Snyder oturuyor...

Çelik Adam (2013) (Man of Steel) | tt0770828 Filmi Imdb'den 718000 kişi tarafından oylandı ve 7,0 puan aldı. Bu film için editör puanı %80 olarak belirlendi. İyi Seyirler!

Teknik Detaylar

Kod :
General
Unique ID                                : 10928036364443970774090015296002287342 (0x838A9CA8A36867BC67744F96C2966EE)
Complete name                            : /home/TheSteel/Desktop/1/Çelik.Adam.2013.BRRip.Xvid.TR.Filmbol.avi
Format                                   : Matroska
Format version                           : Version 4
File size                                : 738 MiB
Duration                                 : 2 h 23 min
Overall bit rate                         : 722 kb/s
Encoded date                             : UTC 2021-06-01 12:13:45
Writing application                      : mkvmerge v31.0.0 ('Dolores In A Shoestand') 64-bit
Writing library                          : libebml v1.3.6 + libmatroska v1.4.9
FileExtension_Invalid                    : mkv mk3d mka mks

Video
ID                                       : 1
Format                                   : MPEG-4 Visual
Format profile                           : [email protected]
Format settings, BVOP                    : No
Format settings, QPel                    : No
Format settings, GMC                     : No warppoints
Format settings, Matrix                  : Default (H.263)
Codec ID                                 : V_MS/VFW/FOURCC / DX50
Codec ID/Hint                            : DivX 5
Duration                                 : 2 h 23 min
Bit rate                                 : 592 kb/s
Width                                    : 640 pixels
Height                                   : 272 pixels
Display aspect ratio                     : 2.35:1
Frame rate mode                          : Constant
Frame rate                               : 23.976 (24000/1001) FPS
Color space                              : YUV
Chroma subsampling                       : 4:2:0
Bit depth                                : 8 bits
Scan type                                : Progressive
Compression mode                         : Lossy
Bits/(Pixel*Frame)                       : 0.142
Stream size                              : 606 MiB (82%)
Title                                    : Filmbol.org
Writing library                          : Lavc51.40.4
Default                                  : Yes
Forced                                   : No

Audio
ID                                       : 2
Format                                   : MPEG Audio
Format version                           : Version 1
Format profile                           : Layer 3
Format settings                          : Joint stereo / MS Stereo
Codec ID                                 : A_MPEG/L3
Codec ID/Hint                            : MP3
Duration                                 : 2 h 23 min
Bit rate mode                            : Constant
Bit rate                                 : 128 kb/s
Channel(s)                               : 2 channels
Sampling rate                            : 44.1 kHz
Frame rate                               : 38.281 FPS (1152 SPF)
Compression mode                         : Lossy
Stream size                              : 131 MiB (18%)
Title                                    : Türkçe - Filmbol.org
Writing library                          : LAME3.97 (beta)
Default                                  : Yes
Forced                                   : No

Film Detayları


 Çelik Adam

 Çelik Adam

 Çelik Adam


Film Fragmanı


Film Detayları


Uptobox ile indir

1Fichier ile indir

1Fichier'den İndiremiyor musun? Tıklayın!


Mega linki şuan da gizli. Kullanıma açmak için konuya yorum yapın ve ardından sayfayı yenileyin.

Mega


Bunun için üzgünüz ancak, bu linke sadece premium üyeler erişebilir.

Filmbol Cloud





Şuan Online!
Şuan Online!
Furkan61 Süper Üye
***
Super Üye

  • Konular0
  • Mesajlar294
  • Rep puanı 4
saolun
Şuan Online!
Şuan Online!
TheSteeL Süper Moderatör
*****
Süper Moderatör

(07-06-2021, Saat: 21:36)Furkan61 Adlı Kullanıcıdan Alıntı: saolun
İyi Seyirler


Hızlı Menü: