Filmbol Forum Film İndir BRRip XviD v Asker (Soldier) - 1998 - TR - BRRip XviD | tt0120157

Premium Üyelik Al

Bildirimi Kapat
Mega linklerinin şikayet edilmemesi için global erişime kapatıp sadece yorum yapanlara açıyoruz. Bu linkleri gizleme işlemini mecburen yapıyoruz ve yorum yapmanızın siteye değil size faydası vardır. Teşekkürler yazmayı çok görüp, Random/Spam/Anlamsız mesajlar atarak forumu kirletip Mega linklerini açmaya çalışan kullanıcılara süresiz ban atacağız.


Asker (Soldier) - 1998 - TR - BRRip XviD | tt0120157
TheSteeL
Asker (Soldier) - 1998 - TR - BRRip XviD | tt0120157
0
14
  • Derecelendirme: 0/5 - 0 oy
  • 1
  • 2
  • 3
  • 4
  • 5
Konuyu Okuyanlar:1 Ziyaretçi
Şuan Online!
Filmin Yayınlanma Tarihi: 1998 
WWW
Şuan Online!
TheSteeL Süper Moderatör
*****
Süper Moderatör



 Asker



Kurt Russell'ın önemli filmlerinde birisi olan Asker filmi, 1998 yapımıdır ve 1999 yılında Türkiye'de vizyona girmiştir. Asker filminin konusu, 98 yılının yakın bir geleceğini konu alıyor. Hükûmet annesi ve babası olmayan çocukları toplayarak kendilerine asker yetiştirmektedir. Fakat her çocuk bu konuda başarılı değildir. Başarılı olanlar ise bu zor eğitimden sonra psikolojik sıkıntı çekmektedir. Todd ise başaralı olanlardan birisidir. Fakat onun yaşadığı psikolojik sıkıntıların üstüne yenilenen teknolojilere ayak uydurmaması ile büyük bir sıkıntı çekmektedir...

Asker (1998) (Soldier) | tt0120157 Filmi Imdb'den 53000 kişi tarafından oylandı ve 6,0 puan aldı. Bu film için editör puanı %70 olarak belirlendi. İyi Seyirler!

Teknik Detaylar

Kod :
General
Complete name                            : /home/TheSteel/Desktop/1/Asker.1998.BRRip.XviD.TR.Filmbol.avi
Format                                   : AVI
Format/Info                              : Audio Video Interleave
File size                                : 909 MiB
Duration                                 : 1 h 38 min
Overall bit rate                         : 1 289 kb/s

Video
ID                                       : 0
Format                                   : MPEG-4 Visual
Format profile                           : Advanced [email protected]
Format settings                          : BVOP2
Format settings, BVOP                    : 2
Format settings, QPel                    : No
Format settings, GMC                     : No warppoints
Format settings, Matrix                  : Default (H.263)
Codec ID                                 : DIVX
Codec ID/Info                            : Project Mayo
Codec ID/Hint                            : DivX 4
Duration                                 : 1 h 38 min
Bit rate                                 : 1 084 kb/s
Width                                    : 768 pixels
Height                                   : 326 pixels
Display aspect ratio                     : 2.35:1
Frame rate                               : 23.976 (24000/1001) FPS
Color space                              : YUV
Chroma subsampling                       : 4:2:0
Bit depth                                : 8 bits
Scan type                                : Progressive
Compression mode                         : Lossy
Bits/(Pixel*Frame)                       : 0.181
Stream size                              : 764 MiB (84%)
Writing library                          : XviD 67

Audio
ID                                       : 1
Format                                   : MPEG Audio
Format version                           : Version 1
Format profile                           : Layer 3
Codec ID                                 : 55
Codec ID/Hint                            : MP3
Duration                                 : 1 h 38 min
Bit rate mode                            : Constant
Bit rate                                 : 192 kb/s
Channel(s)                               : 2 channels
Sampling rate                            : 48.0 kHz
Compression mode                         : Lossy
Stream size                              : 135 MiB (15%)
Alignment                                : Aligned on interleaves
Interleave, duration                     : 24  ms (0.58 video frame)
Writing library                          : LAME3.100ªHÒ$…   ...: ®¼)

Film Detayları


 Asker

 Asker

 Asker


Film Fragmanı


Film Detayları


Uptobox ile indir

1Fichier ile indir

1Fichier'den İndiremiyor musun? Tıklayın!


Mega linki şuan da gizli. Kullanıma açmak için konuya yorum yapın ve ardından sayfayı yenileyin.

Mega


Bunun için üzgünüz ancak, bu linke sadece premium üyeler erişebilir.

Filmbol Cloud







Hızlı Menü: